(Score) Байки из склепа: Кровавый бордель / Tales From The Crypt: Bordello Of Blood (by Chris Boardman) - 1996, FLAC (tracks+.cue), lossless


Статистика раздачи [Обновить пиров]
Размер:  165 MB   |    Зарегистрирован:  9 месяцев 28 дней   |    Скачан:  0 раз

Полного источника не было: Никогда

Личеров:  6  [  0 KB/s  ]   Подробная статистика пиров
 
   
 
 
 

[Цитировать]

Байки из склепа: Кровавый бордель / Tales From The Crypt: Bordello Of Blood-Жанр: Score
Композитор: Chris Boardman
Год выпуска диска: 1996
Производитель диска: P&O, Germany
Издатель (лейбл): Varèse Sarabande
Номер по каталогу: VSD-5728-Аудиокодек: FLAC (*.flac)
Тип рипа: tracks+.cue
Битрейт аудио: lossless
Продолжительность: 00:30:43
Источник: собственный рип
Наличие сканов в содержимом раздачи: да, 600 dpi-Ссылки: Кинопоиск | IMDB | Wikipedia | SoundtrackCollector

Треклист

01. Peru / Meet Lilith [0:07:19.25]
02. Lilith And Guttman [0:02:33.33]
03. Breaking The Key [0:01:05.25]
04. Lilith [0:01:27.07]
05. Guttman Teh Sleuth [0:02:51.50]
06. Confrontation [0:01:54.30]
07. Generator Ploant [0:02:37.68]
08. Exploding Nurse [0:00:58.25]
09. Lilith Morphs [0:01:47.27]
10. Last Laser [0:02:59.03]
11. End Of Lilith [0:02:03.40]
12. All's Well That Ends Well [0:01:31.47]
13. Embalming [0:01:34.55]

Лог создания рипа

Exact Audio Copy V1.1 from 23. June 2015
EAC extraction logfile from 7. February 2016, 21:55
Chris Boardman / Tales From The Crypt: Bordello Of Blood
Used drive : PLEXTOR CD-R PX-230A Adapter: 1 ID: 0
Read mode : SecureUtilize accurate stream : YesDefeat audio cache : YesMake use of C2 pointers : No
Read offset correction : 738Overread into Lead-In and Lead-Out : NoFill up missing offset samples with silence : YesDelete leading and trailing silent blocks : NoNull samples used in CRC calculations : YesUsed interface : Native Win32 interface for Win NT & 2000Gap handling : Appended to previous track
Used output format : User Defined EncoderSelected bitrate : 1024 kBit/sQuality : HighAdd ID3 tag : NoCommand line compressor : C:\Program Files (x86)\Exact Audio Copy\FLAC\FLAC.EXEAdditional command line options : -6 -V -T "ARTIST=%artist%" -T "TITLE=%title%" -T "ALBUM=%albumtitle%" -T "DATE=%year%"-T "TRACKNUMBER=%tracknr%" -T "GENRE=%genre%" -T "COMMENT=%comment%" -T "ALBUMARTIST=%albuminterpret%" -T "COMPOSER=%composer%"-T "DISCNUMBER=%cdnumber%" -T "TOTALDISCS=%totalcds%" -T "TOTALTRACKS=%numtracks%" %source% -o %dest%
TOC of the extracted CD
Track | Start | Length | Start sector | End sector --------------------------------------------------------- 1 | 0:00.00 | 7:19.25 | 0 | 32949 2 | 7:19.25 | 2:33.33 | 32950 | 44457 3 | 9:52.58 | 1:05.25 | 44458 | 49357 4 | 10:58.08 | 1:27.07 | 49358 | 55889 5 | 12:25.15 | 2:51.50 | 55890 | 68764 6 | 15:16.65 | 1:54.30 | 68765 | 77344 7 | 17:11.20 | 2:37.68 | 77345 | 89187 8 | 19:49.13 | 0:58.25 | 89188 | 93562 9 | 20:47.38 | 1:47.27 | 93563 | 101614 10 | 22:34.65 | 2:59.03 | 101615 | 115042 11 | 25:33.68 | 2:03.40 | 115043 | 124307 12 | 27:37.33 | 1:31.47 | 124308 | 131179 13 | 29:09.05 | 1:34.55 | 131180 | 138284
Track 1
Filename C:\Music\01 - Chris Boardman - Peru , Meet Lilith.wav
Pre-gap length 0:00:02.00
Peak level 94.0 % Extraction speed 5.6 X Track quality 100.0 % Test CRC 768BDD85 Copy CRC 768BDD85 Cannot be verified as accurate (confidence 3) [7D50A77D], AccurateRip returned [A14160F0] (AR v2) Copy OK
Track 2
Filename C:\Music\02 - Chris Boardman - Lilith And Guttman.wav
Peak level 90.1 % Extraction speed 5.0 X Track quality 100.0 % Test CRC 3796A826 Copy CRC 3796A826 Cannot be verified as accurate (confidence 3) [34374F2F], AccurateRip returned [2543350A] (AR v2) Copy OK
Track 3
Filename C:\Music\03 - Chris Boardman - Breaking The Key.wav
Peak level 94.0 % Extraction speed 3.9 X Track quality 100.0 % Test CRC C758D5AF Copy CRC C758D5AF Cannot be verified as accurate (confidence 3) [F001E481], AccurateRip returned [E2F9DDD3] (AR v2) Copy OK
Track 4
Filename C:\Music\04 - Chris Boardman - Lilith.wav
Peak level 92.7 % Extraction speed 4.3 X Track quality 100.0 % Test CRC 1EE9BA38 Copy CRC 1EE9BA38 Cannot be verified as accurate (confidence 3) [C0ABD380], AccurateRip returned [BC06B5F0] (AR v2) Copy OK
Track 5
Filename C:\Music\05 - Chris Boardman - Guttman Teh Sleuth.wav
Pre-gap length 0:00:01.17
Peak level 74.4 % Extraction speed 4.3 X Track quality 99.9 % Test CRC 490C116B Copy CRC 490C116B Cannot be verified as accurate (confidence 3) [87E06B90], AccurateRip returned [448A4B8B] (AR v2) Copy OK
Track 6
Filename C:\Music\06 - Chris Boardman - Confrontation.wav
Peak level 48.1 % Extraction speed 4.6 X Track quality 100.0 % Test CRC 6206C933 Copy CRC 6206C933 Cannot be verified as accurate (confidence 3) [ED4F1DB1], AccurateRip returned [DBF72E0A] (AR v2) Copy OK
Track 7
Filename C:\Music\07 - Chris Boardman - Generator Ploant.wav
Peak level 91.6 % Extraction speed 5.0 X Track quality 100.0 % Test CRC B0D3D7EF Copy CRC B0D3D7EF Cannot be verified as accurate (confidence 3) [111192A4], AccurateRip returned [8CA2F85B] (AR v2) Copy OK
Track 8
Filename C:\Music\08 - Chris Boardman - Exploding Nurse.wav
Peak level 88.2 % Extraction speed 3.8 X Track quality 100.0 % Test CRC 1160D143 Copy CRC 1160D143 Cannot be verified as accurate (confidence 3) [8E6B937B], AccurateRip returned [E63710E8] (AR v2) Copy OK
Track 9
Filename C:\Music\09 - Chris Boardman - Lilith Morphs.wav
Peak level 93.2 % Extraction speed 4.5 X Track quality 100.0 % Test CRC 978D4FB9 Copy CRC 978D4FB9 Cannot be verified as accurate (confidence 3) [ED45BEF9], AccurateRip returned [1A150CEF] (AR v2) Copy OK
Track 10
Filename C:\Music\10 - Chris Boardman - Last Laser.wav
Peak level 84.2 % Extraction speed 5.1 X Track quality 100.0 % Test CRC BBFF0CB8 Copy CRC BBFF0CB8 Cannot be verified as accurate (confidence 3) [B66E6C6D], AccurateRip returned [9E67D165] (AR v2) Copy OK
Track 11
Filename C:\Music\11 - Chris Boardman - End Of Lilith.wav
Peak level 86.7 % Extraction speed 4.6 X Track quality 100.0 % Test CRC 5B061162 Copy CRC 5B061162 Cannot be verified as accurate (confidence 3) [B59EC9A9], AccurateRip returned [CF7A4559] (AR v2) Copy OK
Track 12
Filename C:\Music\12 - Chris Boardman - All's Well That Ends Well.wav
Pre-gap length 0:00:01.42
Peak level 91.0 % Extraction speed 2.9 X Track quality 99.8 % Test CRC 23EDD516 Copy CRC 23EDD516 Cannot be verified as accurate (confidence 3) [6DF3F032], AccurateRip returned [5A38C0C8] (AR v2) Copy OK
Track 13
Filename C:\Music\13 - Chris Boardman - Embalming.wav
Peak level 26.2 % Extraction speed 4.2 X Track quality 100.0 % Test CRC CB9DE7B6 Copy CRC CB9DE7B6 Cannot be verified as accurate (confidence 3) [B4AEDB03], AccurateRip returned [404E8E22] (AR v2) Copy OK
No tracks could be verified as accurateYou may have a different pressing from the one(s) in the database
No errors occurred
End of status report
---- CUETools DB Plugin V2.1.6
[CTDB TOCID: eDGfUophp27SC7MYOMTNA_jbZuk-] disk not present in databaseSubmit result: eDGfUophp27SC7MYOMTNA_jbZuk- has been uploaded
==== Log checksum DD37AE27571E69E6C0A5F29FAA050D1486804B2AF15B2818712E4656EEB26B44 ====

Содержание индексной карты (.CUE)

REM GENRE SoundtrackREM DATE 1996REM DISCID B007330DREM COMMENT "ExactAudioCopy v1.1"PERFORMER "Chris Boardman"TITLE "Tales From The Crypt: Bordello Of Blood"FILE "01 - Chris Boardman - Peru , Meet Lilith.wav" WAVE TRACK 01 AUDIO TITLE "Peru / Meet Lilith" PERFORMER "Chris Boardman" INDEX 01 00:00:00FILE "02 - Chris Boardman - Lilith And Guttman.wav" WAVE TRACK 02 AUDIO TITLE "Lilith And Guttman" PERFORMER "Chris Boardman" INDEX 01 00:00:00FILE "03 - Chris Boardman - Breaking The Key.wav" WAVE TRACK 03 AUDIO TITLE "Breaking The Key" PERFORMER "Chris Boardman" INDEX 01 00:00:00FILE "04 - Chris Boardman - Lilith.wav" WAVE TRACK 04 AUDIO TITLE "Lilith" PERFORMER "Chris Boardman" INDEX 01 00:00:00 TRACK 05 AUDIO TITLE "Guttman Teh Sleuth" PERFORMER "Chris Boardman" INDEX 00 01:25:65FILE "05 - Chris Boardman - Guttman Teh Sleuth.wav" WAVE INDEX 01 00:00:00FILE "06 - Chris Boardman - Confrontation.wav" WAVE TRACK 06 AUDIO TITLE "Confrontation" PERFORMER "Chris Boardman" INDEX 01 00:00:00FILE "07 - Chris Boardman - Generator Ploant.wav" WAVE TRACK 07 AUDIO TITLE "Generator Ploant" PERFORMER "Chris Boardman" INDEX 01 00:00:00FILE "08 - Chris Boardman - Exploding Nurse.wav" WAVE TRACK 08 AUDIO TITLE "Exploding Nurse" PERFORMER "Chris Boardman" INDEX 01 00:00:00FILE "09 - Chris Boardman - Lilith Morphs.wav" WAVE TRACK 09 AUDIO TITLE "Lilith Morphs" PERFORMER "Chris Boardman" INDEX 01 00:00:00FILE "10 - Chris Boardman - Last Laser.wav" WAVE TRACK 10 AUDIO TITLE "Last Laser" PERFORMER "Chris Boardman" INDEX 01 00:00:00FILE "11 - Chris Boardman - End Of Lilith.wav" WAVE TRACK 11 AUDIO TITLE "End Of Lilith" PERFORMER "Chris Boardman" INDEX 01 00:00:00 TRACK 12 AUDIO TITLE "All's Well That Ends Well" PERFORMER "Chris Boardman" INDEX 00 02:01:73FILE "12 - Chris Boardman - All's Well That Ends Well.wav" WAVE INDEX 01 00:00:00FILE "13 - Chris Boardman - Embalming.wav" WAVE TRACK 13 AUDIO TITLE "Embalming" PERFORMER "Chris Boardman" INDEX 01 00:00:00

Лог Cue-Tools

[CUETools log; Date: 07.02.2016 22:33:10; Version: 2.1.4][CTDB TOCID: eDGfUophp27SC7MYOMTNA_jbZuk-] found.Track | CTDB Status 1 | (1/1) Accurately ripped 2 | (1/1) Accurately ripped 3 | (1/1) Accurately ripped 4 | (1/1) Accurately ripped 5 | (1/1) Accurately ripped 6 | (1/1) Accurately ripped 7 | (1/1) Accurately ripped 8 | (1/1) Accurately ripped 9 | (1/1) Accurately ripped 10 | (1/1) Accurately ripped 11 | (1/1) Accurately ripped 12 | (1/1) Accurately ripped 13 | (1/1) Accurately ripped[AccurateRip ID: 00111e9c-00a1bfbe-b007330d] found.Track [ CRC | V2 ] Status 01 [f10050bc|7d50a77d] (0+0/3) No match 02 [cde2e66a|34374f2f] (0+0/3) No match 03 [d7044ae7|f001e481] (0+0/3) No match 04 [a4abc33c|c0abd380] (0+0/3) No match 05 [096f264e|87e06b90] (0+0/3) No match 06 [df749b3b|ed4f1db1] (0+0/3) No match 07 [bab6aa70|111192a4] (0+0/3) No match 08 [c64d1c73|8e6b937b] (0+0/3) No match 09 [11b7f75a|ed45bef9] (0+0/3) No match 10 [a9d4bb17|b66e6c6d] (0+0/3) No match 11 [397ce4ec|b59ec9a9] (0+0/3) No match 12 [c50a44a8|6df3f032] (0+0/3) No match 13 [81651e22|b4aedb03] (0+0/3) No matchOffsetted by -196: 01 [a14160f0] (3/3) Accurately ripped 02 [2543350a] (3/3) Accurately ripped 03 [e2f9ddd3] (3/3) Accurately ripped 04 [bc06b5f0] (3/3) Accurately ripped 05 [448a4b8b] (3/3) Accurately ripped 06 [dbf72e0a] (3/3) Accurately ripped 07 [8ca2f85b] (3/3) Accurately ripped 08 [e63710e8] (3/3) Accurately ripped 09 [1a150cef] (3/3) Accurately ripped 10 [9e67d165] (3/3) Accurately ripped 11 [cf7a4559] (3/3) Accurately ripped 12 [5a38c0c8] (3/3) Accurately ripped 13 [404e8e22] (3/3) Accurately ripped
Track Peak [ CRC32 ] [W/O NULL] [ LOG ] -- 94,0 [7371AA6E] [977A5980] 01 94,0 [768BDD85] [6F2F6D1D] CRC32 02 90,1 [3796A826] [1B9FADD7] CRC32 03 94,0 [C758D5AF] [3C7A3E12] CRC32 04 92,7 [1EE9BA38] [5FB36DBC] CRC32 05 74,4 [490C116B] [3AC02DC4] CRC32 06 48,1 [6206C933] [FD34B3E9] CRC32 07 91,6 [B0D3D7EF] [0595197E] CRC32 08 88,2 [1160D143] [E958A647] CRC32 09 93,2 [978D4FB9] [A50BD246] CRC32 10 84,2 [BBFF0CB8] [6C1C32C4] CRC32 11 86,7 [5B061162] [96843339] CRC32 12 91,0 [23EDD516] [749B4CBA] CRC32 13 26,2 [CB9DE7B6] [71B005C9] CRC32
[teatrix.ru].t14786.torrent 
Торрент: Зарегистрирован [ 2016-02-09 12:50 ] · 3933B0629103521A3324C033CA4E4923EE4F397C

Скачать .torrent

Скачать

15 KB

Статус: проверено
Скачан: 0 раз
Размер: 165 MB
terms.php



Быстрый ответ

Имя:

      
Для отправки сообщений необходимо включить JavaScript
Показать сообщения:    

Текущее время: 09-Дек 04:58

Часовой пояс: UTC + 3


Вы можете начинать темы
Вы можете отвечать на сообщения
Вы не можете редактировать свои сообщения
Вы не можете удалять свои сообщения
Вы не можете голосовать в опросах
Вы не можете прикреплять файлы к сообщениям
Вы можете скачивать файлы