(Soundtrack) Байки из склепа: Кровавый бордель / Tales From The Crypt: Bordello Of Blood - 1996, FLAC (tracks+.cue), lossless


Статистика раздачи [Обновить пиров]
Размер:  284 MB   |    Зарегистрирован:  9 месяцев 22 дня   |    Скачан:  1 раз

Полного источника не было: 6 месяцев 13 дней

Личеров:  6  [  0 KB/s  ]   Подробная статистика пиров
 
   
 
 
 

[Цитировать]

Байки из склепа: Кровавый бордель / Tales From The Crypt: Bordello Of Blood-Жанр: Soundtrack
Год выпуска диска: 1996
Производитель диска: USA
Издатель (лейбл): Mercury Records
Номер по каталогу: P2 35648-Аудиокодек: FLAC (*.flac)
Тип рипа: tracks+.cue
Битрейт аудио: lossless
Продолжительность: 00:42:36
Источник: what.cd / GasmaskAvenger
Наличие сканов в содержимом раздачи: только обложка-Ссылки: Кинопоиск | IMDB | Wikipedia | SoundtrackCollector
Score: (Score) Байки из склепа: Кровавый бордель / Tales From The Crypt: Bordello Of Blood (by Chris Boardman) - 1996, FLAC (tracks+.cue), lossless

Треклист

1. Anthrax - Bordello of Blood
2. Kerbdog - This Is Not a Love Song
3. Free - All Right Now
4. Jailbreak - Thin Lizzy
5. Sweet - Ballroom Blitz
6. Redd Kross - Deuce
7. Scorpions - Still Loving You
8. Humble Pie - 30 Days in the Hole
9. Cinderella - Love's Got Me Doin' Time
10. The Herd - From the Underworld

Лог создания рипа

Exact Audio Copy V1.0 beta 6 from 9. April 2015
EAC extraction logfile from 10. May 2015, 23:09
Various / Tales From the Crypt Presents: "Bordello of Blood"
Used drive : TSSTcorpBDDVDW SE-506CB Adapter: 1 ID: 1
Read mode : SecureUtilize accurate stream : YesDefeat audio cache : YesMake use of C2 pointers : No
Read offset correction : 6Overread into Lead-In and Lead-Out : NoFill up missing offset samples with silence : YesDelete leading and trailing silent blocks : NoNull samples used in CRC calculations : YesUsed interface : Native Win32 interface for Win NT & 2000Gap handling : Appended to previous track
Used output format : User Defined EncoderSelected bitrate : 1024 kBit/sQuality : HighAdd ID3 tag : NoCommand line compressor : C:\Program Files (x86)\Exact Audio Copy\FLAC\FLAC.EXEAdditional command line options : -8 -V -T "ARTIST=%artist%" -T "TITLE=%title%" -T "ALBUM=%albumtitle%" -T "DATE=%year%"-T "TRACKNUMBER=%tracknr%" -T "GENRE=%genre%" -T "PERFORMER=%albuminterpret%" -T "COMPOSER=%composer%"%haslyrics%--tag-from-file=LYRICS="%lyricsfile%"%haslyrics% -T "ALBUMARTIST=%albumartist%" -T "DISCNUMBER=%cdnumber%"-T "TOTALDISCS=%totalcds%" -T "TOTALTRACKS=%numtracks%" -T "COMMENT=%comment%" %source% -o %dest%
TOC of the extracted CD
Track | Start | Length | Start sector | End sector --------------------------------------------------------- 1 | 0:00.00 | 4:14.25 | 0 | 19074 2 | 4:14.25 | 2:27.00 | 19075 | 30099 3 | 6:41.25 | 5:33.37 | 30100 | 55111 4 | 12:14.62 | 4:00.45 | 55112 | 73156 5 | 16:15.32 | 4:02.73 | 73157 | 91379 6 | 20:18.30 | 3:14.57 | 91380 | 105986 7 | 23:33.12 | 6:28.03 | 105987 | 135089 8 | 30:01.15 | 3:57.62 | 135090 | 152926 9 | 33:59.02 | 5:21.10 | 152927 | 177011 10 | 39:20.12 | 3:16.33 | 177012 | 191744
Track 1
Filename F:\My Storage\What.cd Uploads\VA - Tales from the Crypt Presents Bordello of Blood OST (1996) [FLAC]\01 - Anthrax - Bordello Of Blood.wav
Pre-gap length 0:00:02.00
Peak level 100.0 % Extraction speed 1.1 X Track quality 100.0 % Test CRC 4916F6B5 Copy CRC 4916F6B5 Cannot be verified as accurate (confidence 2) [69F05ECF], AccurateRip returned [9A877D6C] (AR v2) Copy OK
Track 2
Filename F:\My Storage\What.cd Uploads\VA - Tales from the Crypt Presents Bordello of Blood OST (1996) [FLAC]\02 - Kerbdog - This Is Not A Love Song.wav
Pre-gap length 0:00:01.04
Peak level 98.3 % Extraction speed 1.1 X Track quality 100.0 % Test CRC 9EF91FC5 Copy CRC 9EF91FC5 Cannot be verified as accurate (confidence 2) [3E27EB7C], AccurateRip returned [3A706762] (AR v2) Copy OK
Track 3
Filename F:\My Storage\What.cd Uploads\VA - Tales from the Crypt Presents Bordello of Blood OST (1996) [FLAC]\03 - Free - All Right Now.wav
Pre-gap length 0:00:01.17
Peak level 99.9 % Extraction speed 1.4 X Track quality 100.0 % Test CRC 3BFE772E Copy CRC 3BFE772E Cannot be verified as accurate (confidence 2) [160847D4], AccurateRip returned [F8843BC8] (AR v2) Copy OK
Track 4
Filename F:\My Storage\What.cd Uploads\VA - Tales from the Crypt Presents Bordello of Blood OST (1996) [FLAC]\04 - Thin Lizzy - Jailbreak.wav
Peak level 100.0 % Extraction speed 1.5 X Track quality 100.0 % Test CRC AF299C0C Copy CRC AF299C0C Cannot be verified as accurate (confidence 2) [BA655677], AccurateRip returned [D1478BEE] (AR v2) Copy OK
Track 5
Filename F:\My Storage\What.cd Uploads\VA - Tales from the Crypt Presents Bordello of Blood OST (1996) [FLAC]\05 - Sweet - Ballroom Blitz.wav
Peak level 100.0 % Extraction speed 1.5 X Track quality 100.0 % Test CRC 22BF8329 Copy CRC 22BF8329 Cannot be verified as accurate (confidence 2) [D8948DEE], AccurateRip returned [A627EB21] (AR v2) Copy OK
Track 6
Filename F:\My Storage\What.cd Uploads\VA - Tales from the Crypt Presents Bordello of Blood OST (1996) [FLAC]\06 - Redd Kross - Deuce.wav
Peak level 100.0 % Extraction speed 1.5 X Track quality 100.0 % Test CRC E36E57E2 Copy CRC E36E57E2 Cannot be verified as accurate (confidence 2) [A10A3931], AccurateRip returned [2BDE4728] (AR v2) Copy OK
Track 7
Filename F:\My Storage\What.cd Uploads\VA - Tales from the Crypt Presents Bordello of Blood OST (1996) [FLAC]\07 - Scorpions - Still Loving You.wav
Pre-gap length 0:00:01.96
Peak level 100.0 % Extraction speed 1.8 X Track quality 100.0 % Test CRC C6D5EE5B Copy CRC C6D5EE5B Cannot be verified as accurate (confidence 2) [9D4C6C50], AccurateRip returned [8358009F] (AR v2) Copy OK
Track 8
Filename F:\My Storage\What.cd Uploads\VA - Tales from the Crypt Presents Bordello of Blood OST (1996) [FLAC]\08 - Humble Pie - 30 Days In The Hole.wav
Peak level 100.0 % Extraction speed 1.8 X Track quality 100.0 % Test CRC 3DB9F594 Copy CRC 3DB9F594 Cannot be verified as accurate (confidence 2) [E00CD509], AccurateRip returned [AE5C1B9C] (AR v2) Copy OK
Track 9
Filename F:\My Storage\What.cd Uploads\VA - Tales from the Crypt Presents Bordello of Blood OST (1996) [FLAC]\09 - Cinderella - Love's Got Me Doin' Time.wav
Peak level 100.0 % Extraction speed 2.0 X Track quality 100.0 % Test CRC 474E6DF4 Copy CRC 474E6DF4 Cannot be verified as accurate (confidence 2) [144C3858], AccurateRip returned [F52608A7] (AR v2) Copy OK
Track 10
Filename F:\My Storage\What.cd Uploads\VA - Tales from the Crypt Presents Bordello of Blood OST (1996) [FLAC]\10 - The Herd Featuring Peter Frampton - From the Underworld.wav
Peak level 100.0 % Extraction speed 1.9 X Track quality 100.0 % Test CRC DE7B9B71 Copy CRC DE7B9B71 Cannot be verified as accurate (confidence 2) [31AEC61A], AccurateRip returned [E59B629D] (AR v2) Copy OK
No tracks could be verified as accurateYou may have a different pressing from the one(s) in the database
No errors occurred
End of status report
---- CUETools DB Plugin V2.1.6
[CTDB TOCID: HYhcq9onjkRbPaygnfQ9HV1_dII-] foundSubmit result: HYhcq9onjkRbPaygnfQ9HV1_dII- has been confirmedTrack | CTDB Status 1 | (4/4) Accurately ripped 2 | (4/4) Accurately ripped 3 | (4/4) Accurately ripped 4 | (1/4) Accurately ripped, or (3/4) differs in 12 samples @00:14:64 5 | (4/4) Accurately ripped 6 | (4/4) Accurately ripped 7 | (4/4) Accurately ripped 8 | (4/4) Accurately ripped 9 | (4/4) Accurately ripped 10 | (4/4) Accurately rippedIf you are sure that your rip contains errors, you can use CUETools to repair it.
==== Log checksum C61CBFFCC580D7BB009264423FE541322268D2583AA4014E4E2D45D3F65629B0 ====

Содержание индексной карты (.CUE)

REM GENRE SoundtrackREM DATE 1996REM DISCID 6D09FC0AREM COMMENT "ExactAudioCopy v1.0b6"CATALOG 0000000000000PERFORMER "Various"TITLE "Tales From the Crypt Presents: 'Bordello of Blood'"FILE "01 - Anthrax - Bordello Of Blood.wav" WAVE TRACK 01 AUDIO TITLE "Bordello Of Blood" PERFORMER "Anthrax" INDEX 01 00:00:00 TRACK 02 AUDIO TITLE "This Is Not A Love Song" PERFORMER "Kerbdog" ISRC GBF089400297 INDEX 00 04:13:22FILE "02 - Kerbdog - This Is Not A Love Song.wav" WAVE INDEX 01 00:00:00 TRACK 03 AUDIO TITLE "All Right Now" PERFORMER "Free" ISRC USAM19500660 INDEX 00 02:25:62FILE "03 - Free - All Right Now.wav" WAVE INDEX 01 00:00:00FILE "04 - Thin Lizzy - Jailbreak.wav" WAVE TRACK 04 AUDIO TITLE "Jailbreak" PERFORMER "Thin Lizzy" ISRC GBF087600064 INDEX 01 00:00:00FILE "05 - Sweet - Ballroom Blitz.wav" WAVE TRACK 05 AUDIO TITLE "Ballroom Blitz" PERFORMER "Sweet" INDEX 01 00:00:00FILE "06 - Redd Kross - Deuce.wav" WAVE TRACK 06 AUDIO TITLE "Deuce" PERFORMER "Redd Kross" INDEX 01 00:00:00 TRACK 07 AUDIO TITLE "Still Loving You" PERFORMER "Scorpions" ISRC USPR38430020 INDEX 00 03:12:60FILE "07 - Scorpions - Still Loving You.wav" WAVE INDEX 01 00:00:00FILE "08 - Humble Pie - 30 Days In The Hole.wav" WAVE TRACK 08 AUDIO TITLE "30 Days In The Hole" PERFORMER "Humble Pie" ISRC USAM17200035 INDEX 01 00:00:00FILE "09 - Cinderella - Love's Got Me Doin' Time.wav" WAVE TRACK 09 AUDIO TITLE "Love's Got Me Doin' Time" PERFORMER "Cinderella" ISRC USPR39030021 INDEX 01 00:00:00FILE "10 - The Herd Featuring Peter Frampton - From the Underworld.wav" WAVE TRACK 10 AUDIO TITLE "From the Underworld" PERFORMER "The Herd Featuring Peter Frampton" INDEX 01 00:00:00
[teatrix.ru].t14787.torrent 
Торрент: Зарегистрирован [ 2016-02-09 12:50 ] · 64468A6A04425F92D5A8471CF2F97FFBAEB9BA06

Скачать .torrent

Скачать

13 KB

Статус: проверено
Скачан: 1 раз
Размер: 284 MB
terms.php



Быстрый ответ

Имя:

      
Для отправки сообщений необходимо включить JavaScript
Показать сообщения:    

Текущее время: 03-Дек 09:48

Часовой пояс: UTC + 3


Вы можете начинать темы
Вы можете отвечать на сообщения
Вы не можете редактировать свои сообщения
Вы не можете удалять свои сообщения
Вы не можете голосовать в опросах
Вы не можете прикреплять файлы к сообщениям
Вы можете скачивать файлы