(Score) VA - The Cult Files [2 CD] - (by Mark Snow, Edwin Astley, Laurie Johnson, John Barry, Jerry Goldsmith, John Carpenter, David Mansfield, Henry Mancini, Bernard Herrmann, Vangelis and others) - 1996, FLAC (image+.cue), lossless


Статистика раздачи [Обновить пиров]
Размер:  1010 MB   |    Зарегистрирован:  9 месяцев 24 дня   |    Скачан:  1 раз

Полного источника не было: 7 месяцев 4 дня

Личеров:  6  [  0 KB/s  ]   Подробная статистика пиров
 
   
 
 
 

[Цитировать]

Various Artists - The Cult Files (TV Themes & Films)
Жанр: Score
Композитор: Various
Год выпуска диска: 1996
Страна-производитель диска: UK
Издатель (лейбл): Silva Screen Records
Номер по каталогу: FILMXCD 184
Аудиокодек: FLAC (*.flac)
Тип рипа: image+.cue
Битрейт аудио: lossless
Продолжительность: 02:33:50
Источник: собственный рип
Наличие сканов в содержимом раздачи: да

ТреклистCD 1 - TV Themes

1 Mark Snow - The X-Files - TV Version 0:47
2 Ron Grainer - The Prisoner - Main Title 3:26
3 Edwin Astley - The Saint - Opening & Closing Themes 3:08
4 Edwin Astley - Danger Man - Pre-Credits & Theme 3:08
5 Edwin Astley - Randall & Hopkirk (Deceased) - Theme 3:06
6 Laurie Johnson - The Avengers - Pre-Credits & Theme 3:19
7 Laurie Johnson - Jason King - Theme 2:25
8 John Barry - The Persuaders - Theme 2:11
9 Dudley Simpson - Blake's Seven - Theme 4:27
10 Howard Goodall - Red Dwarf - Interlude / Main Theme 4:59
11 Ron Grainer - Doctor Who - Theme 2:24
12 Robert Mellin and Gian Piero Reverberi - The Adventures of Robinson Crusoe - Suite (Opening Titles / Main Theme / Away From Home / Catching Dinner / Closing Titles) 6:59
13 Charles Gounod - Alfred Hitchcock Presents - Theme / Funeral March of the Marionette 4:21
14 Morton Stevens - Hawaii 5-O - Theme 3:24
15 Fred Steiner - Perry Mason - "Park Avenue Beat" 4:06
16 Quincy Jones - A Man Called Ironside - Theme 3:59
17 Billy Goldenberg - Kojak - Theme 3:17
18 Lalo Schifrin - Mission: Impossible - The Plot / Main Theme 4:17
19 Alexander Courage - Star Trek - Theme 2:25
20 John Debney - Seaquest DSV - Theme (Concert version) 3:23
21 Christopher Franke - Babylon 5 - Theme 3:03
22 Mark Snow - The X-Files - Complete Version 3:29

CD 2 - Films

1 Richard Strauss - 2001: A Space Odyssey - Introduction from Also Sprach Zarathustra 1:52
2 Carl Orff - Excalibur - O Fortuna from Carmina Burana 2:48
3 Jerry Goldsmith - Alien - End Title 3:55
4 Maurice Jarre - Mad Max Beyond Thunderdome - Thunderdome Fanfare /"I Ain't Captain Walker" 5:02
5 John Barry - Body Heat 4:36
6 Jerry Goldsmith - The Omen - Ave Satani 3:56
7 John Carpenter - Halloween - Main Title 2:27
8 John Carpenter - Assault on Precinct 13 - Main Title 2:54
9 Vangelis - Blade Runner - End Title 4:46
10 Danny Elfman - Batman - Theme 3:07
11 John Williams - Superman - Love Theme 6:13
12 Jerry Goldsmith - The Shadow - Main Theme 2:36
13 James Horner - The Rocketeer - To the Rescue & End Title 7:33
14 David Mansfield - Heaven’s Gate - Sweet Breeze 4:08
15 Jerry Goldsmith - Legend - Main Theme/The Goblins 5:49
16 John Barry - Somewhere In Time 6:15
17 Bernard Herrmann - Taxi Driver - Night Piece 4:07
18 Henry Mancini - The Pink Panther - Theme 2:48
19 Henry Mancini - The Blues Brothers - Peter Gunn Theme 2:49

Исполнители

Royal Philharmonic Orchestra Track Performer
Mark Lambert Guitar,Keyboards, Track Performer
Nic Raine Conductor
Mark Ayres Synthesizer, Track Performer
Mike Townend Conductor
Daniel Caine Track Performer
Paul Bateman Conductor
Jill Washington Soprano (Vocal)
David Temple Choir Master
Diane Hunte Track Performer
Crouch End Festival Chorus Track Performer
Prague Philharmonic Orchestra Track Performer

Лог создания рипаCD 1

Exact Audio Copy V1.0 beta 3 from 29. August 2011
Отчёт EAC об извлечении, выполненном 30. января 2016, 5:07
Various Artists / The Cult Files [CD 1: TV Themes]
Дисковод: Optiarc DVD RW AD-7280S Adapter: 2 ID: 2
Режим чтения : ДостоверностьИспользование точного потока : ДаОтключение кэша аудио : ДаИспользование указателей C2 : Нет
Коррекция смещения при чтении : 48Способность читать области Lead-in и Lead-out : НетЗаполнение пропущенных сэмплов тишиной : ДаУдаление блоков с тишиной в начале и конце : НетПри вычислениях CRC использовались нулевые сэмплы : ДаИнтерфейс : Встроенный Win32-интерфейс для Win NT/2000
Выходной формат : Пользовательский кодировщикВыбранный битрейт : 128 kBit/sКачество : ВысокийДобавление ID3-тега : НетУтилита сжатия : C:\Program Files\Exact Audio Copy\Flac\flac.exeДополнительные параметры : -V -8 -T "Date=%year%" -T "Genre=%genre%" %source%
TOC извлечённого CD
Трек | Старт | Длительность | Начальный сектор | Конечный сектор --------------------------------------------------------------------- 1 | 0:00.33 | 0:47.22 | 33 | 3579 2 | 0:47.55 | 3:26.30 | 3580 | 19059 3 | 4:14.10 | 3:08.05 | 19060 | 33164 4 | 7:22.15 | 3:07.73 | 33165 | 47262 5 | 10:30.13 | 3:06.10 | 47263 | 61222 6 | 13:36.23 | 3:19.12 | 61223 | 76159 7 | 16:55.35 | 2:25.28 | 76160 | 87062 8 | 19:20.63 | 2:11.22 | 87063 | 96909 9 | 21:32.10 | 4:27.20 | 96910 | 116954 10 | 25:59.30 | 4:58.58 | 116955 | 139362 11 | 30:58.13 | 2:24.10 | 139363 | 150172 12 | 33:22.23 | 6:59.20 | 150173 | 181617 13 | 40:21.43 | 4:20.67 | 181618 | 201184 14 | 44:42.35 | 3:23.50 | 201185 | 216459 15 | 48:06.10 | 4:06.25 | 216460 | 234934 16 | 52:12.35 | 4:01.63 | 234935 | 253072 17 | 56:14.23 | 3:17.15 | 253073 | 267862 18 | 59:31.38 | 4:17.07 | 267863 | 287144 19 | 63:48.45 | 2:25.35 | 287145 | 298054 20 | 66:14.05 | 3:23.15 | 298055 | 313294 21 | 69:37.20 | 3:02.43 | 313295 | 326987 22 | 72:39.63 | 3:28.45 | 326988 | 342632
Характеристики диапазона извлечения и сообщения об ошибках
Выбранный диапазон
Имя файла C:\Documents and Settings\biotox\Рабочий стол\Новая папка (2)\CD1\Various Artists - The Cult Files [CD 1- TV Themes].wav
Пиковый уровень 100.0 % Скорость извлечения 4.6 X Качество диапазона 100.0 % CRC теста D469D2C9 CRC копии D469D2C9 Копирование... OK
Ошибок не произошло
AccurateRip: сводка
Трек 1 : извлечено точно (доверие 9) [6B79F856] (AR v2)Трек 2 : извлечено точно (доверие 10) [5364A0A9] (AR v2)Трек 3 : извлечено точно (доверие 10) [5F12E4B4] (AR v2)Трек 4 : извлечено точно (доверие 10) [B7B12886] (AR v2)Трек 5 : извлечено точно (доверие 10) [702CCA7E] (AR v2)Трек 6 : извлечено точно (доверие 10) [6376E09C] (AR v2)Трек 7 : извлечено точно (доверие 10) [938EB3DC] (AR v2)Трек 8 : извлечено точно (доверие 10) [13DCE1F8] (AR v2)Трек 9 : извлечено точно (доверие 10) [EBB1FDFD] (AR v2)Трек 10 : извлечено точно (доверие 10) [A2375557] (AR v2)Трек 11 : извлечено точно (доверие 10) [394DC068] (AR v2)Трек 12 : извлечено точно (доверие 10) [139EEEDA] (AR v2)Трек 13 : извлечено точно (доверие 10) [389CA703] (AR v2)Трек 14 : извлечено точно (доверие 10) [A61F35ED] (AR v2)Трек 15 : извлечено точно (доверие 6) [60E667DD] (AR v2)Трек 16 : извлечено точно (доверие 9) [75551C9F] (AR v2)Трек 17 : извлечено точно (доверие 7) [B48CBC4B] (AR v2)Трек 18 : извлечено точно (доверие 10) [BFC646B3] (AR v2)Трек 19 : извлечено точно (доверие 10) [87965E11] (AR v2)Трек 20 : извлечено точно (доверие 10) [9C05B8F4] (AR v2)Трек 21 : извлечено точно (доверие 7) [72B894AA] (AR v2)Трек 22 : извлечено точно (доверие 9) [8C36E37C] (AR v2)
Все треки извлечены точно
Конец отчёта
==== Контрольная сумма отчёта 91EF12EB8B8A89A4BDC71907A43FA7BD3F1E3853D0FB3D02B79B0E09ECAD1F32 ====

CD 2

Exact Audio Copy V1.0 beta 3 from 29. August 2011
Отчёт EAC об извлечении, выполненном 30. января 2016, 6:08
Various Artists / The Cult Files [CD 2: Films]
Дисковод: Optiarc DVD RW AD-7280S Adapter: 2 ID: 2
Режим чтения : ДостоверностьИспользование точного потока : ДаОтключение кэша аудио : ДаИспользование указателей C2 : Нет
Коррекция смещения при чтении : 48Способность читать области Lead-in и Lead-out : НетЗаполнение пропущенных сэмплов тишиной : ДаУдаление блоков с тишиной в начале и конце : НетПри вычислениях CRC использовались нулевые сэмплы : ДаИнтерфейс : Встроенный Win32-интерфейс для Win NT/2000
Выходной формат : Пользовательский кодировщикВыбранный битрейт : 128 kBit/sКачество : ВысокийДобавление ID3-тега : НетУтилита сжатия : C:\Program Files\Exact Audio Copy\Flac\flac.exeДополнительные параметры : -V -8 -T "Date=%year%" -T "Genre=%genre%" %source%
TOC извлечённого CD
Трек | Старт | Длительность | Начальный сектор | Конечный сектор --------------------------------------------------------------------- 1 | 0:00.33 | 1:52.20 | 33 | 8452 2 | 1:52.53 | 2:48.37 | 8453 | 21089 3 | 4:41.15 | 3:55.20 | 21090 | 38734 4 | 8:36.35 | 5:01.53 | 38735 | 61362 5 | 13:38.13 | 4:36.20 | 61363 | 82082 6 | 18:14.33 | 3:56.02 | 82083 | 99784 7 | 22:10.35 | 2:26.60 | 99785 | 110794 8 | 24:37.20 | 2:54.08 | 110795 | 123852 9 | 27:31.28 | 4:46.00 | 123853 | 145302 10 | 32:17.28 | 3:06.72 | 145303 | 159324 11 | 35:24.25 | 6:12.43 | 159325 | 187267 12 | 41:36.68 | 2:36.07 | 187268 | 198974 13 | 44:13.00 | 7:33.30 | 198975 | 232979 14 | 51:46.30 | 4:08.03 | 232980 | 251582 15 | 55:54.33 | 5:49.05 | 251583 | 277762 16 | 61:43.38 | 6:15.15 | 277763 | 305902 17 | 67:58.53 | 4:06.60 | 305903 | 324412 18 | 72:05.38 | 2:48.25 | 324413 | 337037 19 | 74:53.63 | 2:48.45 | 337038 | 349682
Характеристики диапазона извлечения и сообщения об ошибках
Выбранный диапазон
Имя файла C:\Documents and Settings\biotox\Рабочий стол\Новая папка (2)\CD2\Various Artists - The Cult Files [CD 2- Films].wav
Пиковый уровень 100.0 % Скорость извлечения 4.6 X Качество диапазона 100.0 % CRC теста 544BC445 CRC копии 544BC445 Копирование... OK
Ошибок не произошло
AccurateRip: сводка
Трек 1 : извлечено точно (доверие 9) [04CCCB92] (AR v2)Трек 2 : извлечено точно (доверие 9) [B7990548] (AR v2)Трек 3 : извлечено точно (доверие 9) [3487E0CC] (AR v2)Трек 4 : извлечено точно (доверие 9) [07F683FD] (AR v2)Трек 5 : извлечено точно (доверие 9) [961C9935] (AR v2)Трек 6 : извлечено точно (доверие 9) [F29B40DC] (AR v2)Трек 7 : извлечено точно (доверие 9) [10A1FDBE] (AR v2)Трек 8 : извлечено точно (доверие 9) [C5CC6B4F] (AR v2)Трек 9 : извлечено точно (доверие 9) [D1DFE985] (AR v2)Трек 10 : извлечено точно (доверие 9) [B6D09386] (AR v2)Трек 11 : извлечено точно (доверие 9) [782DC1E7] (AR v2)Трек 12 : извлечено точно (доверие 8) [C6664D02] (AR v2)Трек 13 : извлечено точно (доверие 8) [468903A4] (AR v2)Трек 14 : извлечено точно (доверие 8) [98B2EC43] (AR v2)Трек 15 : извлечено точно (доверие 8) [88CF195F] (AR v2)Трек 16 : извлечено точно (доверие 8) [7C40325D] (AR v2)Трек 17 : извлечено точно (доверие 8) [7E0D74BE] (AR v2)Трек 18 : извлечено точно (доверие 8) [E942E4B1] (AR v2)Трек 19 : извлечено точно (доверие 4) [53386BC8] (AR v2)
Все треки извлечены точно
Конец отчёта
==== Контрольная сумма отчёта A9D56622A1BE601B6CA72C0CF9E4AD617FB2C44F9D360023FA920DB3C6316B56 ====

Замер динамического диапазонаCD 1

foobar2000 1.2.9 / Замер динамического диапазона (DR) 1.1.1Дата отчёта: 2016-01-30 06:12:34
--------------------------------------------------------------------------------Статистика для: 19-Star Trek - ThemeКоличество сэмплов: 6415080Продолжительность: 2:25--------------------------------------------------------------------------------
Левый Правый
Пики: -0.57 дБ --- 0.00 дБСредний RMS: -14.01 дБ --- -13.77 дБDR канала: 9.82 дБ --- 10.14 дБ--------------------------------------------------------------------------------
Реальные значения DR: DR10
Частота: 44100 ГцКаналов: 2Разрядность: 16Битрейт: 835 кбит/сКодек: FLAC================================================================================--------------------------------------------------------------------------------Статистика для: 17-Kojak -ThemeКоличество сэмплов: 8696520Продолжительность: 3:17--------------------------------------------------------------------------------
Левый Правый
Пики: -0.49 дБ --- 0.00 дБСредний RMS: -11.56 дБ --- -12.90 дБDR канала: 9.18 дБ --- 11.44 дБ--------------------------------------------------------------------------------
Реальные значения DR: DR10
Частота: 44100 ГцКаналов: 2Разрядность: 16Битрейт: 835 кбит/сКодек: FLAC================================================================================--------------------------------------------------------------------------------Анализ: Charles Gounod / The Cult Files [CD 1: TV Themes] (1) Christopher Franke / The Cult Files [CD 1: TV Themes] (2)--------------------------------------------------------------------------------
DR Пики RMS Продолжительность трека--------------------------------------------------------------------------------DR15 -0.51 дБ -20.68 дБ 4:21 13-Alfred Hitchcock Presents - Theme / Funeral March of the MarionetteDR11 -0.11 дБ -14.44 дБ 3:03 21-Babylon 5 - Theme--------------------------------------------------------------------------------
Количество треков: 2Реальные значения DR: DR13
Частота: 44100 ГцКаналов: 2Разрядность: 16Битрейт: 835 кбит/сКодек: FLAC================================================================================
--------------------------------------------------------------------------------Статистика для: 09-Blake's Seven - ThemeКоличество сэмплов: 11786460Продолжительность: 4:27--------------------------------------------------------------------------------
Левый Правый
Пики: -0.37 дБ --- -0.24 дБСредний RMS: -12.40 дБ --- -12.53 дБDR канала: 10.01 дБ --- 10.17 дБ--------------------------------------------------------------------------------
Реальные значения DR: DR10
Частота: 44100 ГцКаналов: 2Разрядность: 16Битрейт: 835 кбит/сКодек: FLAC================================================================================--------------------------------------------------------------------------------Анализ: Edwin Astley / The Cult Files [CD 1: TV Themes] (1-3) Fred Steiner / The Cult Files [CD 1: TV Themes] (4)--------------------------------------------------------------------------------
DR Пики RMS Продолжительность трека--------------------------------------------------------------------------------DR12 0.00 дБ -14.69 дБ 3:08 03-The Saint - Opening & Closing ThemesDR10 -0.03 дБ -11.91 дБ 3:08 04-Danger Man - Pre-Credits & ThemeDR12 -0.10 дБ -13.40 дБ 3:06 05-Randall & Hopkirk (Deceased) - ThemeDR11 0.00 дБ -13.59 дБ 4:06 15-Perry Mason - 'Park Avenue Beat'--------------------------------------------------------------------------------
Количество треков: 4Реальные значения DR: DR11
Частота: 44100 ГцКаналов: 2Разрядность: 16Битрейт: 835 кбит/сКодек: FLAC================================================================================
--------------------------------------------------------------------------------Статистика для: 10-Red Dwarf - Interlude / Main ThemeКоличество сэмплов: 13175904Продолжительность: 4:59--------------------------------------------------------------------------------
Левый Правый
Пики: -0.06 дБ --- 0.00 дБСредний RMS: -13.79 дБ --- -12.90 дБDR канала: 11.33 дБ --- 10.02 дБ--------------------------------------------------------------------------------
Реальные значения DR: DR11
Частота: 44100 ГцКаналов: 2Разрядность: 16Битрейт: 835 кбит/сКодек: FLAC================================================================================--------------------------------------------------------------------------------Анализ: John Barry / The Cult Files [CD 1: TV Themes] (1) John Debney / The Cult Files [CD 1: TV Themes] (2)--------------------------------------------------------------------------------
DR Пики RMS Продолжительность трека--------------------------------------------------------------------------------DR12 0.00 дБ -13.27 дБ 2:11 08-The Persuaders - ThemeDR11 -0.49 дБ -14.80 дБ 3:23 20-Seaquest DSV - Theme (Concert version)--------------------------------------------------------------------------------
Количество треков: 2Реальные значения DR: DR11
Частота: 44100 ГцКаналов: 2Разрядность: 16Битрейт: 835 кбит/сКодек: FLAC================================================================================
--------------------------------------------------------------------------------Статистика для: 18-Mission: Impossible - The Plot / Main ThemeКоличество сэмплов: 11337816Продолжительность: 4:17--------------------------------------------------------------------------------
Левый Правый
Пики: 0.00 дБ --- 0.00 дБСредний RMS: -13.66 дБ --- -13.40 дБDR канала: 12.08 дБ --- 12.25 дБ--------------------------------------------------------------------------------
Реальные значения DR: DR12
Частота: 44100 ГцКаналов: 2Разрядность: 16Битрейт: 835 кбит/сКодек: FLAC================================================================================--------------------------------------------------------------------------------Анализ: Laurie Johnson / The Cult Files [CD 1: TV Themes]--------------------------------------------------------------------------------
DR Пики RMS Продолжительность трека--------------------------------------------------------------------------------DR9 -0.19 дБ -11.67 дБ 3:19 06-The Avengers - Pre-Credits & ThemeDR12 0.00 дБ -12.82 дБ 2:25 07-Jason King - Theme--------------------------------------------------------------------------------
Количество треков: 2Реальные значения DR: DR10
Частота: 44100 ГцКаналов: 2Разрядность: 16Битрейт: 835 кбит/сКодек: FLAC================================================================================
--------------------------------------------------------------------------------Анализ: Mark Snow / The Cult Files [CD 1: TV Themes]--------------------------------------------------------------------------------
DR Пики RMS Продолжительность трека--------------------------------------------------------------------------------DR13 -0.75 дБ -16.02 дБ 0:47 01-The X-Files - TV VersionDR12 -0.17 дБ -14.07 дБ 3:29 22-The X-Files - Complete Version--------------------------------------------------------------------------------
Количество треков: 2Реальные значения DR: DR12
Частота: 44100 ГцКаналов: 2Разрядность: 16Битрейт: 835 кбит/сКодек: FLAC================================================================================
--------------------------------------------------------------------------------Анализ: Morton Stevens / The Cult Files [CD 1: TV Themes] (1) Quincy Jones / The Cult Files [CD 1: TV Themes] (2)--------------------------------------------------------------------------------
DR Пики RMS Продолжительность трека--------------------------------------------------------------------------------DR10 0.00 дБ -12.07 дБ 3:24 14-Hawaii 5-ODR11 0.00 дБ -12.70 дБ 4:02 16-A Man Called Ironside - Theme--------------------------------------------------------------------------------
Количество треков: 2Реальные значения DR: DR11
Частота: 44100 ГцКаналов: 2Разрядность: 16Битрейт: 835 кбит/сКодек: FLAC================================================================================
--------------------------------------------------------------------------------Статистика для: 12-The Adventures of Robinson Crusoe - Suite (Opening Titles / Main Theme / Away...Количество сэмплов: 18489660Продолжительность: 6:59--------------------------------------------------------------------------------
Левый Правый
Пики: -0.77 дБ --- -0.81 дБСредний RMS: -17.70 дБ --- -17.19 дБDR канала: 11.81 дБ --- 11.74 дБ--------------------------------------------------------------------------------
Реальные значения DR: DR12
Частота: 44100 ГцКаналов: 2Разрядность: 16Битрейт: 835 кбит/сКодек: FLAC================================================================================--------------------------------------------------------------------------------Анализ: Ron Grainer / The Cult Files [CD 1: TV Themes]--------------------------------------------------------------------------------
DR Пики RMS Продолжительность трека--------------------------------------------------------------------------------DR11 -0.11 дБ -13.03 дБ 3:26 02-The Prisoner - Main TitleDR10 -0.98 дБ -12.93 дБ 2:24 11-Doctor Who - Theme--------------------------------------------------------------------------------
Количество треков: 2Реальные значения DR: DR10
Частота: 44100 ГцКаналов: 2Разрядность: 16Битрейт: 835 кбит/сКодек: FLAC================================================================================

CD 2

foobar2000 1.2.9 / Замер динамического диапазона (DR) 1.1.1Дата отчёта: 2016-01-30 06:11:16
--------------------------------------------------------------------------------Статистика для: 17-Taxi Driver (Night Piece)Количество сэмплов: 10883880Продолжительность: 4:07--------------------------------------------------------------------------------
Левый Правый
Пики: -0.89 дБ --- -0.60 дБСредний RMS: -19.28 дБ --- -18.73 дБDR канала: 13.79 дБ --- 14.13 дБ--------------------------------------------------------------------------------
Реальные значения DR: DR14
Частота: 44100 ГцКаналов: 2Разрядность: 16Битрейт: 712 кбит/сКодек: FLAC================================================================================--------------------------------------------------------------------------------Анализ: Carl Orff / The Cult Files [CD 2: Films] (1) Danny Elfman / The Cult Files [CD 2: Films] (2) David Mansfield / The Cult Files [CD 2: Films] (3) Henry Mancini / The Cult Files [CD 2: Films] (4-5)--------------------------------------------------------------------------------
DR Пики RMS Продолжительность трека--------------------------------------------------------------------------------DR10 -0.45 дБ -14.96 дБ 2:48 02-Excalibur [O Fortuna From Carmina Burana]DR11 -0.53 дБ -15.33 дБ 3:07 10-Batman [Theme]DR12 -3.47 дБ -21.12 дБ 4:08 14-Heaven's Gate (Sweet Breeze)DR12 0.00 дБ -14.80 дБ 2:48 18-The Pink Panther [Theme]DR11 0.00 дБ -11.94 дБ 2:49 19-The Blues Brothers [The Peter Gunn Theme]--------------------------------------------------------------------------------
Количество треков: 5Реальные значения DR: DR11
Частота: 44100 ГцКаналов: 2Разрядность: 16Битрейт: 712 кбит/сКодек: FLAC================================================================================
--------------------------------------------------------------------------------Статистика для: 13-The Rocketeer (To The Rescue) [End Title]Количество сэмплов: 19994940Продолжительность: 7:33--------------------------------------------------------------------------------
Левый Правый
Пики: -0.42 дБ --- -0.46 дБСредний RMS: -17.55 дБ --- -17.10 дБDR канала: 11.92 дБ --- 11.48 дБ--------------------------------------------------------------------------------
Реальные значения DR: DR12
Частота: 44100 ГцКаналов: 2Разрядность: 16Битрейт: 712 кбит/сКодек: FLAC================================================================================--------------------------------------------------------------------------------Анализ: Jerry Goldsmith / The Cult Files [CD 2: Films]--------------------------------------------------------------------------------
DR Пики RMS Продолжительность трека--------------------------------------------------------------------------------DR13 -0.48 дБ -19.34 дБ 3:55 03-Alien [End Title]DR12 -0.51 дБ -18.50 дБ 3:56 06-The Omen (Ave Satani)DR11 -0.94 дБ -15.62 дБ 2:36 12-The Shadow [Main Theme]DR13 -0.42 дБ -17.59 дБ 5:49 15-Legend (The Goblins) [Main Title]--------------------------------------------------------------------------------
Количество треков: 4Реальные значения DR: DR12
Частота: 44100 ГцКаналов: 2Разрядность: 16Битрейт: 712 кбит/сКодек: FLAC================================================================================
--------------------------------------------------------------------------------Анализ: John Barry / The Cult Files [CD 2: Films]--------------------------------------------------------------------------------
DR Пики RMS Продолжительность трека--------------------------------------------------------------------------------DR11 -1.54 дБ -17.88 дБ 4:36 05-Body HeatDR14 -0.92 дБ -19.29 дБ 6:15 16-Somewhere In Time--------------------------------------------------------------------------------
Количество треков: 2Реальные значения DR: DR12
Частота: 44100 ГцКаналов: 2Разрядность: 16Битрейт: 712 кбит/сКодек: FLAC================================================================================
--------------------------------------------------------------------------------Анализ: John Carpenter / The Cult Files [CD 2: Films] (1-2) John Williams / The Cult Files [CD 2: Films] (3)--------------------------------------------------------------------------------
DR Пики RMS Продолжительность трека--------------------------------------------------------------------------------DR10 -2.17 дБ -16.30 дБ 2:27 07-Holloween [Main Title]DR12 -1.15 дБ -15.93 дБ 2:54 08-Assault On Precinct 13 [Main Title]DR13 -0.67 дБ -20.08 дБ 6:13 11-Superman [Love Theme]--------------------------------------------------------------------------------
Количество треков: 3Реальные значения DR: DR12
Частота: 44100 ГцКаналов: 2Разрядность: 16Битрейт: 712 кбит/сКодек: FLAC================================================================================
--------------------------------------------------------------------------------Статистика для: 04-Mad Max Beyond Thunderdome (Thunderdome Fanfare--I Ain't Captain Walker-)Количество сэмплов: 13305264Продолжительность: 5:02--------------------------------------------------------------------------------
Левый Правый
Пики: 0.00 дБ --- -0.54 дБСредний RMS: -15.90 дБ --- -15.62 дБDR канала: 11.10 дБ --- 10.91 дБ--------------------------------------------------------------------------------
Реальные значения DR: DR11
Частота: 44100 ГцКаналов: 2Разрядность: 16Битрейт: 712 кбит/сКодек: FLAC================================================================================--------------------------------------------------------------------------------Анализ: Richard Strauss / The Cult Files [CD 2: Films] (1) Vangelis / The Cult Files [CD 2: Films] (2)--------------------------------------------------------------------------------
DR Пики RMS Продолжительность трека--------------------------------------------------------------------------------DR10 -0.55 дБ -14.51 дБ 1:52 01-2001 A Space Odyssey [Introduction From Also Sprach Zarathustra]DR8 0.00 дБ -9.86 дБ 4:46 09-Blade Runnder [End Title]--------------------------------------------------------------------------------
Количество треков: 2Реальные значения DR: DR9
Частота: 44100 ГцКаналов: 2Разрядность: 16Битрейт: 712 кбит/сКодек: FLAC================================================================================
[teatrix.ru].t14789.torrent 
Торрент: Зарегистрирован [ 2016-02-09 12:50 ] · 7B30E1B45E08EFC2D19A27A1BBE1CFEEDE0720EA

Скачать .torrent

Скачать

22 KB

Статус: проверено
Скачан: 1 раз
Размер: 1010 MB
terms.php



Быстрый ответ

Имя:

      
Для отправки сообщений необходимо включить JavaScript
Показать сообщения:    

Текущее время: 05-Дек 07:30

Часовой пояс: UTC + 3


Вы можете начинать темы
Вы можете отвечать на сообщения
Вы не можете редактировать свои сообщения
Вы не можете удалять свои сообщения
Вы не можете голосовать в опросах
Вы не можете прикреплять файлы к сообщениям
Вы можете скачивать файлы