(Score / Soundtrack) Властелин легенд / DreamKeeper (Television) (by Stephen Warbeck) - 2003, FLAC (tracks+.cue), lossless


Статистика раздачи [Обновить пиров]
Размер:  326 MB   |    Зарегистрирован:  11 месяцев 10 дней   |    Скачан:  1 раз

Полного источника не было: 7 месяцев 18 дней

Личеров:  6  [  0 KB/s  ]   Подробная статистика пиров
 
   
 
 
 

[Цитировать]

Властелин легенд / DreamKeeper (Television)-Жанр: Score / Soundtrack
Композитор: Stephen Warbeck
Год выпуска диска: 2003
Производитель диска: P&O, Germany
Издатель (лейбл): Varèse Sarabande
Номер по каталогу: VSD 6528-Аудиокодек: FLAC (*.flac)
Тип рипа: tracks+.cue
Битрейт аудио: lossless
Продолжительность: 00:54:15
Источник: собственный рип
Наличие сканов в содержимом раздачи: да, 600 dpi-Ссылки: Кинопоиск | IMDB | Wikipedia | SoundtrackCollector
MP3: (Score/TV) Властелин легенд / DreamKeeper (by Stephen Warbeck) - 2003, MP3 (tracks) 320 kbps

Треклист

01. David Midthunder & Maza Kute / Eagle Boy [0:03:24.05]
02. The Journey [0:01:42.70]
03. Tokala Clifford / Bluebird Woman [0:00:31.07]
04. Tokala Clifford / High Horse Captures The Ponies [0:04:40.43]
05. Iris Stacey & the Sweetgrass Singers / She Crosses The Water [0:02:25.45]
06. Plea for Brother [0:01:38.57]
07. Tehan [0:01:41.70]
08. The Elk [0:02:17.43]
09. The Serpent [0:03:51.37]
10. Riding To The Rainbow [0:00:55.35]
11. The Dun Poney [0:03:52.53]
12. Killing The Buffalo [0:03:08.57]
13. Resurrection Of The Dun Poney [0:02:37.10]
14. The Dorene Day Singers / Quillwork Girl's Journey [0:02:25.68]
15. Buffalo To The Stars [0:00:50.60]
16. Birth Of The Fall [0:02:03.47]
17. Daughter Climb The Mountain [0:02:17.43]
18. Father's Ghost [0:01:53.02]
19. Three Generations [0:01:05.45]
20. Death Of Grandfather [0:02:17.70]
21. Shane's Journey [0:02:00.18]
22. Maza Kute / Powwow Chant [0:02:25.00]
23. The End Of The Story [0:01:33.55]
24. The Boyz / Straight Round Dance [0:02:31.22]

Лог создания рипа

Exact Audio Copy V1.1 from 23. June 2015
EAC extraction logfile from 30. January 2016, 13:50
Stephen Warbeck / Dreamkeeper
Used drive : PLEXTOR CD-R PX-230A Adapter: 1 ID: 0
Read mode : SecureUtilize accurate stream : YesDefeat audio cache : YesMake use of C2 pointers : No
Read offset correction : 738Overread into Lead-In and Lead-Out : NoFill up missing offset samples with silence : YesDelete leading and trailing silent blocks : NoNull samples used in CRC calculations : YesUsed interface : Native Win32 interface for Win NT & 2000Gap handling : Appended to previous track
Used output format : User Defined EncoderSelected bitrate : 1024 kBit/sQuality : HighAdd ID3 tag : NoCommand line compressor : C:\Program Files (x86)\Exact Audio Copy\FLAC\FLAC.EXEAdditional command line options : -6 -V -T "ARTIST=%artist%" -T "TITLE=%title%" -T "ALBUM=%albumtitle%" -T "DATE=%year%"-T "TRACKNUMBER=%tracknr%" -T "GENRE=%genre%" -T "COMMENT=%comment%" -T "ALBUMARTIST=%albuminterpret%" -T "COMPOSER=%composer%"-T "DISCNUMBER=%cdnumber%" -T "TOTALDISCS=%totalcds%" -T "TOTALTRACKS=%numtracks%" %source% -o %dest%
TOC of the extracted CD
Track | Start | Length | Start sector | End sector --------------------------------------------------------- 1 | 0:00.00 | 3:24.05 | 0 | 15304 2 | 3:24.05 | 1:42.70 | 15305 | 23024 3 | 5:07.00 | 0:31.07 | 23025 | 25356 4 | 5:38.07 | 4:40.43 | 25357 | 46399 5 | 10:18.50 | 2:25.45 | 46400 | 57319 6 | 12:44.20 | 1:38.57 | 57320 | 64726 7 | 14:23.02 | 1:41.70 | 64727 | 72371 8 | 16:04.72 | 2:17.43 | 72372 | 82689 9 | 18:22.40 | 3:51.37 | 82690 | 100051 10 | 22:14.02 | 0:55.35 | 100052 | 104211 11 | 23:09.37 | 3:52.53 | 104212 | 121664 12 | 27:02.15 | 3:08.57 | 121665 | 135821 13 | 30:10.72 | 2:37.10 | 135822 | 147606 14 | 32:48.07 | 2:25.68 | 147607 | 158549 15 | 35:14.00 | 0:50.60 | 158550 | 162359 16 | 36:04.60 | 2:03.47 | 162360 | 171631 17 | 38:08.32 | 2:17.43 | 171632 | 181949 18 | 40:26.00 | 1:53.02 | 181950 | 190426 19 | 42:19.02 | 1:05.45 | 190427 | 195346 20 | 43:24.47 | 2:17.70 | 195347 | 205691 21 | 45:42.42 | 2:00.18 | 205692 | 214709 22 | 47:42.60 | 2:25.00 | 214710 | 225584 23 | 50:07.60 | 1:33.55 | 225585 | 232614 24 | 51:41.40 | 2:31.22 | 232615 | 243961
Track 1
Filename C:\Music\01 - David Midthunder & Maza Kute - Eagle Boy.wav
Pre-gap length 0:00:02.00
Peak level 98.8 % Extraction speed 4.8 X Track quality 100.0 % Test CRC 3EAE4F7A Copy CRC 3EAE4F7A Accurately ripped (confidence 2) [B88FDD58] (AR v1) Copy OK
Track 2
Filename C:\Music\02 - Stephen Warbeck - The Journey.wav
Peak level 98.8 % Extraction speed 3.5 X Track quality 99.8 % Test CRC 0A637F61 Copy CRC 0A637F61 Accurately ripped (confidence 2) [EE51DDE6] (AR v1) Copy OK
Track 3
Filename C:\Music\03 - Tokala Clifford - Bluebird Woman.wav
Peak level 87.9 % Extraction speed 2.7 X Track quality 100.0 % Test CRC 45DC6B18 Copy CRC 45DC6B18 Accurately ripped (confidence 2) [8ED7480B] (AR v1) Copy OK
Track 4
Filename C:\Music\04 - Tokala Clifford - High Horse Captures The Ponies.wav
Peak level 98.8 % Extraction speed 5.2 X Track quality 100.0 % Test CRC D59E86A9 Copy CRC D59E86A9 Accurately ripped (confidence 2) [C687AF4B] (AR v1) Copy OK
Track 5
Filename C:\Music\05 - Iris Stacey & the Sweetgrass Singers - She Crosses The Water.wav
Peak level 98.8 % Extraction speed 4.3 X Track quality 100.0 % Test CRC BD498B7A Copy CRC BD498B7A Accurately ripped (confidence 2) [56A1BE1C] (AR v1) Copy OK
Track 6
Filename C:\Music\06 - Stephen Warbeck - Plea for Brother.wav
Pre-gap length 0:00:01.05
Peak level 98.8 % Extraction speed 3.6 X Track quality 100.0 % Test CRC A31BE7CA Copy CRC A31BE7CA Accurately ripped (confidence 2) [14A94C85] (AR v1) Copy OK
Track 7
Filename C:\Music\07 - Stephen Warbeck - Tehan.wav
Pre-gap length 0:00:01.05
Peak level 92.3 % Extraction speed 3.5 X Track quality 99.8 % Test CRC FC6583DB Copy CRC FC6583DB Accurately ripped (confidence 2) [BCBBF38C] (AR v1) Copy OK
Track 8
Filename C:\Music\08 - Stephen Warbeck - The Elk.wav
Peak level 98.8 % Extraction speed 4.8 X Track quality 100.0 % Test CRC C1C1E87E Copy CRC C1C1E87E Accurately ripped (confidence 2) [24344B23] (AR v1) Copy OK
Track 9
Filename C:\Music\09 - Stephen Warbeck - The Serpent.wav
Pre-gap length 0:00:01.05
Peak level 98.8 % Extraction speed 5.2 X Track quality 100.0 % Test CRC EBFEA9CC Copy CRC EBFEA9CC Accurately ripped (confidence 2) [7C6B47D6] (AR v1) Copy OK
Track 10
Filename C:\Music\10 - Stephen Warbeck - Riding To The Rainbow.wav
Pre-gap length 0:00:01.05
Peak level 98.8 % Extraction speed 3.4 X Track quality 100.0 % Test CRC 57E95AA3 Copy CRC 57E95AA3 Accurately ripped (confidence 2) [2BC655DC] (AR v1) Copy OK
Track 11
Filename C:\Music\11 - Stephen Warbeck - The Dun Poney.wav
Pre-gap length 0:00:01.05
Peak level 98.8 % Extraction speed 4.6 X Track quality 99.9 % Test CRC E473C4BA Copy CRC E473C4BA Accurately ripped (confidence 2) [CDC1E297] (AR v1) Copy OK
Track 12
Filename C:\Music\12 - Stephen Warbeck - Killing The Buffalo.wav
Pre-gap length 0:00:01.50
Peak level 98.8 % Extraction speed 5.0 X Track quality 100.0 % Test CRC E3AD80B0 Copy CRC E3AD80B0 Accurately ripped (confidence 2) [62531D7D] (AR v1) Copy OK
Track 13
Filename C:\Music\13 - Stephen Warbeck - Resurrection Of The Dun Poney.wav
Pre-gap length 0:00:01.42
Peak level 98.8 % Extraction speed 4.9 X Track quality 100.0 % Test CRC 8768BA11 Copy CRC 8768BA11 Accurately ripped (confidence 2) [1A24861A] (AR v1) Copy OK
Track 14
Filename C:\Music\14 - The Dorene Day Singers - Quillwork Girl's Journey.wav
Pre-gap length 0:00:01.57
Peak level 98.8 % Extraction speed 4.7 X Track quality 100.0 % Test CRC F1C5FBF1 Copy CRC F1C5FBF1 Accurately ripped (confidence 2) [79EBDE01] (AR v1) Copy OK
Track 15
Filename C:\Music\15 - Stephen Warbeck - Buffalo To The Stars.wav
Pre-gap length 0:00:01.43
Peak level 73.8 % Extraction speed 2.4 X Track quality 99.7 % Test CRC F162FA2F Copy CRC F162FA2F Accurately ripped (confidence 2) [5484662C] (AR v1) Copy OK
Track 16
Filename C:\Music\16 - Stephen Warbeck - Birth Of The Fall.wav
Pre-gap length 0:00:02.05
Peak level 98.8 % Extraction speed 4.6 X Track quality 100.0 % Test CRC 0706CCB4 Copy CRC 0706CCB4 Accurately ripped (confidence 2) [0F3762EA] (AR v1) Copy OK
Track 17
Filename C:\Music\17 - Stephen Warbeck - Daughter Climb The Mountain.wav
Pre-gap length 0:00:02.05
Peak level 98.8 % Extraction speed 3.9 X Track quality 100.0 % Test CRC BF0CD4C5 Copy CRC BF0CD4C5 Accurately ripped (confidence 2) [18F33D1A] (AR v1) Copy OK
Track 18
Filename C:\Music\18 - Stephen Warbeck - Father's Ghost.wav
Pre-gap length 0:00:01.05
Peak level 98.8 % Extraction speed 4.5 X Track quality 100.0 % Test CRC 7FAA40ED Copy CRC 7FAA40ED Accurately ripped (confidence 2) [02B86D7E] (AR v1) Copy OK
Track 19
Filename C:\Music\19 - Stephen Warbeck - Three Generations.wav
Pre-gap length 0:00:01.42
Peak level 62.8 % Extraction speed 3.8 X Track quality 100.0 % Test CRC 53B5DD6F Copy CRC 53B5DD6F Accurately ripped (confidence 2) [E8F579C9] (AR v1) Copy OK
Track 20
Filename C:\Music\20 - Stephen Warbeck - Death Of Grandfather.wav
Peak level 98.8 % Extraction speed 3.3 X Track quality 100.0 % Test CRC E4955B53 Copy CRC E4955B53 Accurately ripped (confidence 2) [A3E96CE5] (AR v1) Copy OK
Track 21
Filename C:\Music\21 - Stephen Warbeck - Shane's Journey.wav
Pre-gap length 0:00:01.41
Peak level 98.8 % Extraction speed 4.3 X Track quality 100.0 % Test CRC 7D357EA4 Copy CRC 7D357EA4 Accurately ripped (confidence 2) [56D3E36A] (AR v1) Copy OK
Track 22
Filename C:\Music\22 - Maza Kute - Powwow Chant.wav
Pre-gap length 0:00:02.05
Peak level 98.8 % Extraction speed 4.7 X Track quality 100.0 % Test CRC 88251B0B Copy CRC 88251B0B Accurately ripped (confidence 2) [4F47A5EA] (AR v1) Copy OK
Track 23
Filename C:\Music\23 - Stephen Warbeck - The End Of The Story.wav
Pre-gap length 0:00:02.05
Peak level 98.8 % Extraction speed 3.8 X Track quality 100.0 % Test CRC 48DBD32F Copy CRC 48DBD32F Accurately ripped (confidence 2) [1FC894DC] (AR v1) Copy OK
Track 24
Filename C:\Music\24 - The Boyz - Straight Round Dance.wav
Pre-gap length 0:00:01.45
Peak level 98.8 % Extraction speed 4.3 X Track quality 100.0 % Test CRC D5EB420D Copy CRC D5EB420D Accurately ripped (confidence 2) [EF0CA554] (AR v1) Copy OK
All tracks accurately ripped
No errors occurred
End of status report
---- CUETools DB Plugin V2.1.6
[CTDB TOCID: dIXeKVsIMmAzi1lZV3cWOHSFCBo-] disk not present in databaseSubmit result: dIXeKVsIMmAzi1lZV3cWOHSFCBo- has been uploaded
==== Log checksum B7E066F98EE192D384F03FE95FF35812F706297794B05533910D3967C35ECF70 ====

Содержание индексной карты (.CUE)

REM GENRE SoundtrackREM DATE 2003REM DISCID 340CB418REM COMMENT "ExactAudioCopy v1.1"PERFORMER "Stephen Warbeck"TITLE "Dreamkeeper"FILE "01 - David Midthunder & Maza Kute - Eagle Boy.wav" WAVE TRACK 01 AUDIO TITLE "Eagle Boy" PERFORMER "David Midthunder & Maza Kute" INDEX 01 00:00:00FILE "02 - Stephen Warbeck - The Journey.wav" WAVE TRACK 02 AUDIO TITLE "The Journey" PERFORMER "Stephen Warbeck" INDEX 01 00:00:00FILE "03 - Tokala Clifford - Bluebird Woman.wav" WAVE TRACK 03 AUDIO TITLE "Bluebird Woman" PERFORMER "Tokala Clifford" INDEX 01 00:00:00FILE "04 - Tokala Clifford - High Horse Captures The Ponies.wav" WAVE TRACK 04 AUDIO TITLE "High Horse Captures The Ponies" PERFORMER "Tokala Clifford" INDEX 01 00:00:00FILE "05 - Iris Stacey & the Sweetgrass Singers - She Crosses The Water.wav" WAVE TRACK 05 AUDIO TITLE "She Crosses The Water" PERFORMER "Iris Stacey & the Sweetgrass Singers" INDEX 01 00:00:00 TRACK 06 AUDIO TITLE "Plea for Brother" PERFORMER "Stephen Warbeck" INDEX 00 02:24:40FILE "06 - Stephen Warbeck - Plea for Brother.wav" WAVE INDEX 01 00:00:00 TRACK 07 AUDIO TITLE "Tehan" PERFORMER "Stephen Warbeck" INDEX 00 01:37:52FILE "07 - Stephen Warbeck - Tehan.wav" WAVE INDEX 01 00:00:00FILE "08 - Stephen Warbeck - The Elk.wav" WAVE TRACK 08 AUDIO TITLE "The Elk" PERFORMER "Stephen Warbeck" INDEX 01 00:00:00 TRACK 09 AUDIO TITLE "The Serpent" PERFORMER "Stephen Warbeck" INDEX 00 02:16:38FILE "09 - Stephen Warbeck - The Serpent.wav" WAVE INDEX 01 00:00:00 TRACK 10 AUDIO TITLE "Riding To The Rainbow" PERFORMER "Stephen Warbeck" INDEX 00 03:50:32FILE "10 - Stephen Warbeck - Riding To The Rainbow.wav" WAVE INDEX 01 00:00:00 TRACK 11 AUDIO TITLE "The Dun Poney" PERFORMER "Stephen Warbeck" INDEX 00 00:54:30FILE "11 - Stephen Warbeck - The Dun Poney.wav" WAVE INDEX 01 00:00:00 TRACK 12 AUDIO TITLE "Killing The Buffalo" PERFORMER "Stephen Warbeck" INDEX 00 03:51:03FILE "12 - Stephen Warbeck - Killing The Buffalo.wav" WAVE INDEX 01 00:00:00 TRACK 13 AUDIO TITLE "Resurrection Of The Dun Poney" PERFORMER "Stephen Warbeck" INDEX 00 03:07:15FILE "13 - Stephen Warbeck - Resurrection Of The Dun Poney.wav" WAVE INDEX 01 00:00:00 TRACK 14 AUDIO TITLE "Quillwork Girl's Journey" PERFORMER "The Dorene Day Singers" INDEX 00 02:35:28FILE "14 - The Dorene Day Singers - Quillwork Girl's Journey.wav" WAVE INDEX 01 00:00:00 TRACK 15 AUDIO TITLE "Buffalo To The Stars" PERFORMER "Stephen Warbeck" INDEX 00 02:24:25FILE "15 - Stephen Warbeck - Buffalo To The Stars.wav" WAVE INDEX 01 00:00:00 TRACK 16 AUDIO TITLE "Birth Of The Fall" PERFORMER "Stephen Warbeck" INDEX 00 00:48:55FILE "16 - Stephen Warbeck - Birth Of The Fall.wav" WAVE INDEX 01 00:00:00 TRACK 17 AUDIO TITLE "Daughter Climb The Mountain" PERFORMER "Stephen Warbeck" INDEX 00 02:01:42FILE "17 - Stephen Warbeck - Daughter Climb The Mountain.wav" WAVE INDEX 01 00:00:00 TRACK 18 AUDIO TITLE "Father's Ghost" PERFORMER "Stephen Warbeck" INDEX 00 02:16:38FILE "18 - Stephen Warbeck - Father's Ghost.wav" WAVE INDEX 01 00:00:00 TRACK 19 AUDIO TITLE "Three Generations" PERFORMER "Stephen Warbeck" INDEX 00 01:51:35FILE "19 - Stephen Warbeck - Three Generations.wav" WAVE INDEX 01 00:00:00FILE "20 - Stephen Warbeck - Death Of Grandfather.wav" WAVE TRACK 20 AUDIO TITLE "Death Of Grandfather" PERFORMER "Stephen Warbeck" INDEX 01 00:00:00 TRACK 21 AUDIO TITLE "Shane's Journey" PERFORMER "Stephen Warbeck" INDEX 00 02:16:29FILE "21 - Stephen Warbeck - Shane's Journey.wav" WAVE INDEX 01 00:00:00 TRACK 22 AUDIO TITLE "Powwow Chant" PERFORMER "Maza Kute" INDEX 00 01:58:13FILE "22 - Maza Kute - Powwow Chant.wav" WAVE INDEX 01 00:00:00 TRACK 23 AUDIO TITLE "The End Of The Story" PERFORMER "Stephen Warbeck" INDEX 00 02:22:70FILE "23 - Stephen Warbeck - The End Of The Story.wav" WAVE INDEX 01 00:00:00 TRACK 24 AUDIO TITLE "Straight Round Dance" PERFORMER "The Boyz" INDEX 00 01:32:10FILE "24 - The Boyz - Straight Round Dance.wav" WAVE INDEX 01 00:00:00
[teatrix.ru].t14790.torrent 
Торрент: Зарегистрирован [ 2016-02-09 12:50 ] · D06B5D27C095579B4E6F674C341A2BCE27D228A3

Скачать .torrent

Скачать

9 KB

Статус: проверено
Скачан: 1 раз
Размер: 326 MB
terms.php



Быстрый ответ

Имя:

      
Для отправки сообщений необходимо включить JavaScript
Показать сообщения:    

Текущее время: 19-Янв 16:04

Часовой пояс: UTC + 3


Вы можете начинать темы
Вы можете отвечать на сообщения
Вы не можете редактировать свои сообщения
Вы не можете удалять свои сообщения
Вы не можете голосовать в опросах
Вы не можете прикреплять файлы к сообщениям
Вы можете скачивать файлы