(Score) Страх / Fear (by Henry Mancini) - 2013 (1990), FLAC (tracks+.cue), lossless


Статистика раздачи [Обновить пиров]
Размер:  391 MB   |    Зарегистрирован:  9 месяцев 22 дня   |    Скачан:  0 раз

Полного источника не было: Никогда

Личеров:  6  [  0 KB/s  ]   Подробная статистика пиров
 
   
 
 
 

[Цитировать]

Страх / Fear-Жанр: Score
Композитор: Henry Mancini
Год выпуска диска: 2013
Год выпуска фильма: 1990
Производитель диска: NovoDisc, Spain
Издатель (лейбл): Quartet Records
Номер по каталогу: MS018-Аудиокодек: FLAC (*.flac)
Тип рипа: tracks+.cue
Битрейт аудио: lossless
Продолжительность: 01:04:28
Источник: собственный рип
Наличие сканов в содержимом раздачи: да, 600 dpi-Ссылки: Кинопоиск | IMDB | Wikipedia | SoundtrackCollector

Треклист

01. Casey's Theme [0:01:45.25]
02. Main Title [0:01:53.27]
03. The Urge [0:03:55.38]
04. Deadly Delivery [0:00:31.22]
05. Snoopy [0:03:35.55]
06. Ice Cream Truck [0:00:27.18]
07. Jack's Tune [0:01:45.27]
08. Contact [0:03:15.50]
09. His First Call [0:00:22.58]
10. Hand To Hand [0:00:30.46]
11. Mr. Fear Strikes Again [0:04:57.38]
12. Live Killing [0:00:37.16]
13. Low Life [0:02:25.27]
14. Trespasser [0:01:29.50]
15. Visions Of Fear [0:00:47.26]
16. Her Greatest Fear [0:03:38.22]
17. He Knows [0:01:43.47]
18. Peek-A-Boo [0:01:14.09]
19. Hall Of Mirrors [0:01:54.15]
20. The Chamber Of Fear [0:01:07.00]
21. Mr. Fear Goes Down [0:00:53.69]
22. Casey's Theme (End Titles) [0:03:05.52]
Bonus tracks:
23. Carnival Source 1 [Bonus] [0:04:02.45]
24. Carnival Source 2 [Bonus] [0:03:44.37]
25. Carnival Source 3 [Bonus] [0:03:26.08]
26. Carnival Source 4 [Bonus] [0:02:24.19]
27. Jack's Tune (Wild) [Bonus] [0:05:06.43]
28. Airplaine Source [Bonus] [0:03:03.58]
29. Daybreak America Source [Bonus] [0:00:13.27]
30. Actionline News Source [Bonus] [0:00:29.48]

Лог создания рипа

Exact Audio Copy V1.1 from 23. June 2015
EAC extraction logfile from 30. January 2016, 12:42
Henry Mancini / Fear
Used drive : PLEXTOR CD-R PX-230A Adapter: 1 ID: 0
Read mode : SecureUtilize accurate stream : YesDefeat audio cache : YesMake use of C2 pointers : No
Read offset correction : 738Overread into Lead-In and Lead-Out : NoFill up missing offset samples with silence : YesDelete leading and trailing silent blocks : NoNull samples used in CRC calculations : YesUsed interface : Native Win32 interface for Win NT & 2000Gap handling : Appended to previous track
Used output format : User Defined EncoderSelected bitrate : 1024 kBit/sQuality : HighAdd ID3 tag : NoCommand line compressor : C:\Program Files (x86)\Exact Audio Copy\FLAC\FLAC.EXEAdditional command line options : -6 -V -T "ARTIST=%artist%" -T "TITLE=%title%" -T "ALBUM=%albumtitle%" -T "DATE=%year%"-T "TRACKNUMBER=%tracknr%" -T "GENRE=%genre%" -T "COMMENT=%comment%" -T "ALBUMARTIST=%albuminterpret%" -T "COMPOSER=%composer%"-T "DISCNUMBER=%cdnumber%" -T "TOTALDISCS=%totalcds%" -T "TOTALTRACKS=%numtracks%" %source% -o %dest%
TOC of the extracted CD
Track | Start | Length | Start sector | End sector --------------------------------------------------------- 1 | 0:00.00 | 1:45.25 | 0 | 7899 2 | 1:45.25 | 1:53.27 | 7900 | 16401 3 | 3:38.52 | 3:55.38 | 16402 | 34064 4 | 7:34.15 | 0:31.22 | 34065 | 36411 5 | 8:05.37 | 3:35.55 | 36412 | 52591 6 | 11:41.17 | 0:27.18 | 52592 | 54634 7 | 12:08.35 | 1:45.27 | 54635 | 62536 8 | 13:53.62 | 3:15.50 | 62537 | 77211 9 | 17:09.37 | 0:22.58 | 77212 | 78919 10 | 17:32.20 | 0:30.46 | 78920 | 81215 11 | 18:02.66 | 4:57.38 | 81216 | 103528 12 | 23:00.29 | 0:37.16 | 103529 | 106319 13 | 23:37.45 | 2:25.27 | 106320 | 117221 14 | 26:02.72 | 1:29.50 | 117222 | 123946 15 | 27:32.47 | 0:47.26 | 123947 | 127497 16 | 28:19.73 | 3:38.22 | 127498 | 143869 17 | 31:58.20 | 1:43.47 | 143870 | 151641 18 | 33:41.67 | 1:14.09 | 151642 | 157200 19 | 34:56.01 | 1:54.15 | 157201 | 165765 20 | 36:50.16 | 1:07.00 | 165766 | 170790 21 | 37:57.16 | 0:53.69 | 170791 | 174834 22 | 38:51.10 | 3:05.52 | 174835 | 188761 23 | 41:56.62 | 4:02.45 | 188762 | 206956 24 | 45:59.32 | 3:44.37 | 206957 | 223793 25 | 49:43.69 | 3:26.08 | 223794 | 239251 26 | 53:10.02 | 2:24.19 | 239252 | 250070 27 | 55:34.21 | 5:06.43 | 250071 | 273063 28 | 60:40.64 | 3:03.58 | 273064 | 286846 29 | 63:44.47 | 0:13.27 | 286847 | 287848 30 | 63:57.74 | 0:29.48 | 287849 | 290071
Track 1
Filename C:\Music\01 - Henry Mancini - Casey's Theme.wav
Pre-gap length 0:00:02.00
Peak level 80.4 % Extraction speed 3.8 X Track quality 100.0 % Test CRC E779408F Copy CRC E779408F Accurately ripped (confidence 10) [2C5E3ADE] (AR v2) Copy OK
Track 2
Filename C:\Music\02 - Henry Mancini - Main Title.wav
Pre-gap length 0:00:03.45
Peak level 97.1 % Extraction speed 4.6 X Track quality 100.0 % Test CRC 59692C01 Copy CRC 59692C01 Accurately ripped (confidence 10) [4D6D638E] (AR v2) Copy OK
Track 3
Filename C:\Music\03 - Henry Mancini - The Urge.wav
Pre-gap length 0:00:02.00
Peak level 97.2 % Extraction speed 4.4 X Track quality 100.0 % Test CRC B9AC1D90 Copy CRC B9AC1D90 Accurately ripped (confidence 10) [12D2AF16] (AR v2) Copy OK
Track 4
Filename C:\Music\04 - Henry Mancini - Deadly Delivery.wav
Pre-gap length 0:00:02.00
Peak level 73.2 % Extraction speed 2.8 X Track quality 100.0 % Test CRC 0DD1F312 Copy CRC 0DD1F312 Accurately ripped (confidence 10) [78E0D3BD] (AR v2) Copy OK
Track 5
Filename C:\Music\05 - Henry Mancini - Snoopy.wav
Pre-gap length 0:00:02.00
Peak level 99.3 % Extraction speed 4.8 X Track quality 100.0 % Test CRC 201AB81D Copy CRC 201AB81D Accurately ripped (confidence 10) [586A221B] (AR v2) Copy OK
Track 6
Filename C:\Music\06 - Henry Mancini - Ice Cream Truck.wav
Pre-gap length 0:00:02.00
Peak level 29.5 % Extraction speed 2.5 X Track quality 100.0 % Test CRC 6020672E Copy CRC 6020672E Accurately ripped (confidence 10) [7438523A] (AR v2) Copy OK
Track 7
Filename C:\Music\07 - Henry Mancini - Jack's Tune.wav
Pre-gap length 0:00:02.00
Peak level 79.7 % Extraction speed 4.0 X Track quality 100.0 % Test CRC 1C908638 Copy CRC 1C908638 Accurately ripped (confidence 10) [969F68E5] (AR v2) Copy OK
Track 8
Filename C:\Music\08 - Henry Mancini - Contact.wav
Pre-gap length 0:00:02.00
Peak level 95.0 % Extraction speed 4.5 X Track quality 100.0 % Test CRC C90D8E6D Copy CRC C90D8E6D Accurately ripped (confidence 10) [6711F77B] (AR v2) Copy OK
Track 9
Filename C:\Music\09 - Henry Mancini - His First Call.wav
Pre-gap length 0:00:02.00
Peak level 79.2 % Extraction speed 2.3 X Track quality 100.0 % Test CRC 8696A933 Copy CRC 8696A933 Accurately ripped (confidence 10) [809CB4A5] (AR v2) Copy OK
Track 10
Filename C:\Music\10 - Henry Mancini - Hand To Hand.wav
Pre-gap length 0:00:02.00
Peak level 92.8 % Extraction speed 2.4 X Track quality 100.0 % Test CRC B72FC6BF Copy CRC B72FC6BF Accurately ripped (confidence 10) [354A4FC7] (AR v2) Copy OK
Track 11
Filename C:\Music\11 - Henry Mancini - Mr. Fear Strikes Again.wav
Pre-gap length 0:00:02.00
Peak level 97.1 % Extraction speed 4.3 X Track quality 100.0 % Test CRC 21D3467A Copy CRC 21D3467A Accurately ripped (confidence 10) [DF324A45] (AR v2) Copy OK
Track 12
Filename C:\Music\12 - Henry Mancini - Live Killing.wav
Pre-gap length 0:00:02.00
Peak level 94.8 % Extraction speed 2.5 X Track quality 100.0 % Test CRC 46AFC078 Copy CRC 46AFC078 Accurately ripped (confidence 10) [E90D8C02] (AR v2) Copy OK
Track 13
Filename C:\Music\13 - Henry Mancini - Low Life.wav
Pre-gap length 0:00:02.00
Peak level 98.3 % Extraction speed 3.7 X Track quality 100.0 % Test CRC 1F26DBCC Copy CRC 1F26DBCC Accurately ripped (confidence 10) [BC170062] (AR v2) Copy OK
Track 14
Filename C:\Music\14 - Henry Mancini - Trespasser.wav
Pre-gap length 0:00:02.00
Peak level 97.0 % Extraction speed 3.5 X Track quality 100.0 % Test CRC 124F1C0A Copy CRC 124F1C0A Accurately ripped (confidence 10) [FBBEBCCC] (AR v2) Copy OK
Track 15
Filename C:\Music\15 - Henry Mancini - Visions Of Fear.wav
Pre-gap length 0:00:02.00
Peak level 82.0 % Extraction speed 3.0 X Track quality 100.0 % Test CRC 2E1BC28A Copy CRC 2E1BC28A Accurately ripped (confidence 10) [3FDCC911] (AR v2) Copy OK
Track 16
Filename C:\Music\16 - Henry Mancini - Her Greatest Fear.wav
Pre-gap length 0:00:02.00
Peak level 96.9 % Extraction speed 4.0 X Track quality 100.0 % Test CRC F6DA02C1 Copy CRC F6DA02C1 Accurately ripped (confidence 10) [0CB86F07] (AR v2) Copy OK
Track 17
Filename C:\Music\17 - Henry Mancini - He Knows.wav
Pre-gap length 0:00:02.00
Peak level 95.2 % Extraction speed 3.3 X Track quality 100.0 % Test CRC 36082CA1 Copy CRC 36082CA1 Accurately ripped (confidence 10) [970B00FA] (AR v2) Copy OK
Track 18
Filename C:\Music\18 - Henry Mancini - Peek-A-Boo.wav
Pre-gap length 0:00:02.00
Peak level 87.4 % Extraction speed 3.5 X Track quality 100.0 % Test CRC E5BB6F37 Copy CRC E5BB6F37 Accurately ripped (confidence 10) [5FBF5E2D] (AR v2) Copy OK
Track 19
Filename C:\Music\19 - Henry Mancini - Hall Of Mirrors.wav
Pre-gap length 0:00:03.00
Peak level 85.7 % Extraction speed 3.4 X Track quality 99.9 % Test CRC 060684D9 Copy CRC 060684D9 Accurately ripped (confidence 10) [855AB3E9] (AR v2) Copy OK
Track 20
Filename C:\Music\20 - Henry Mancini - The Chamber Of Fear.wav
Pre-gap length 0:00:02.00
Peak level 97.1 % Extraction speed 3.8 X Track quality 100.0 % Test CRC 0215A830 Copy CRC 0215A830 Accurately ripped (confidence 10) [5558FAE0] (AR v2) Copy OK
Track 21
Filename C:\Music\21 - Henry Mancini - Mr. Fear Goes Down.wav
Pre-gap length 0:00:02.00
Peak level 97.1 % Extraction speed 3.2 X Track quality 100.0 % Test CRC BB37F0FD Copy CRC BB37F0FD Accurately ripped (confidence 10) [8DE446C4] (AR v2) Copy OK
Track 22
Filename C:\Music\22 - Henry Mancini - Casey's Theme (End Titles).wav
Pre-gap length 0:00:03.00
Peak level 61.4 % Extraction speed 3.7 X Track quality 100.0 % Test CRC 92E2758C Copy CRC 92E2758C Accurately ripped (confidence 10) [C0584E57] (AR v2) Copy OK
Track 23
Filename C:\Music\23 - Henry Mancini - Carnival Source 1 [Bonus].wav
Pre-gap length 0:00:05.00
Peak level 91.0 % Extraction speed 4.6 X Track quality 100.0 % Test CRC D3DFDE6D Copy CRC D3DFDE6D Accurately ripped (confidence 10) [79ECC6A7] (AR v2) Copy OK
Track 24
Filename C:\Music\24 - Henry Mancini - Carnival Source 2 [Bonus].wav
Pre-gap length 0:00:02.00
Peak level 95.3 % Extraction speed 4.3 X Track quality 100.0 % Test CRC 561BCEF2 Copy CRC 561BCEF2 Accurately ripped (confidence 10) [6E76F5AA] (AR v2) Copy OK
Track 25
Filename C:\Music\25 - Henry Mancini - Carnival Source 3 [Bonus].wav
Pre-gap length 0:00:02.00
Peak level 93.8 % Extraction speed 4.2 X Track quality 100.0 % Test CRC 836D88B1 Copy CRC 836D88B1 Accurately ripped (confidence 10) [0E3BB361] (AR v2) Copy OK
Track 26
Filename C:\Music\26 - Henry Mancini - Carnival Source 4 [Bonus].wav
Pre-gap length 0:00:02.00
Peak level 99.0 % Extraction speed 4.1 X Track quality 100.0 % Test CRC 384208CE Copy CRC 384208CE Accurately ripped (confidence 10) [75A06ADE] (AR v2) Copy OK
Track 27
Filename C:\Music\27 - Henry Mancini - Jack's Tune (Wild) [Bonus].wav
Pre-gap length 0:00:03.00
Peak level 72.4 % Extraction speed 5.3 X Track quality 100.0 % Test CRC F069BAFC Copy CRC F069BAFC Accurately ripped (confidence 10) [ED6784A2] (AR v2) Copy OK
Track 28
Filename C:\Music\28 - Henry Mancini - Airplaine Source [Bonus].wav
Pre-gap length 0:00:02.00
Peak level 91.4 % Extraction speed 4.9 X Track quality 100.0 % Test CRC 63F6A369 Copy CRC 63F6A369 Accurately ripped (confidence 10) [09463716] (AR v2) Copy OK
Track 29
Filename C:\Music\29 - Henry Mancini - Daybreak America Source [Bonus].wav
Pre-gap length 0:00:02.00
Peak level 93.0 % Extraction speed 1.5 X Track quality 100.0 % Test CRC 2B6B1B8E Copy CRC 2B6B1B8E Accurately ripped (confidence 10) [E6FA374A] (AR v2) Copy OK
Track 30
Filename C:\Music\30 - Henry Mancini - Actionline News Source [Bonus].wav
Pre-gap length 0:00:02.00
Peak level 90.5 % Extraction speed 2.4 X Track quality 100.0 % Test CRC AF5E23B2 Copy CRC AF5E23B2 Accurately ripped (confidence 10) [8504D09F] (AR v2) Copy OK
All tracks accurately ripped
No errors occurred
End of status report
---- CUETools DB Plugin V2.1.6
[CTDB TOCID: qosthEpVFjrSV4cMdaA5rDKsRsc-] foundSubmit result: qosthEpVFjrSV4cMdaA5rDKsRsc- has been confirmedTrack | CTDB Status 1 | (6/6) Accurately ripped 2 | (6/6) Accurately ripped 3 | (6/6) Accurately ripped 4 | (6/6) Accurately ripped 5 | (6/6) Accurately ripped 6 | (6/6) Accurately ripped 7 | (6/6) Accurately ripped 8 | (6/6) Accurately ripped 9 | (6/6) Accurately ripped 10 | (6/6) Accurately ripped 11 | (6/6) Accurately ripped 12 | (6/6) Accurately ripped 13 | (6/6) Accurately ripped 14 | (6/6) Accurately ripped 15 | (6/6) Accurately ripped 16 | (6/6) Accurately ripped 17 | (6/6) Accurately ripped 18 | (6/6) Accurately ripped 19 | (6/6) Accurately ripped 20 | (6/6) Accurately ripped 21 | (6/6) Accurately ripped 22 | (6/6) Accurately ripped 23 | (6/6) Accurately ripped 24 | (6/6) Accurately ripped 25 | (6/6) Accurately ripped 26 | (6/6) Accurately ripped 27 | (6/6) Accurately ripped 28 | (6/6) Accurately ripped 29 | (6/6) Accurately ripped 30 | (6/6) Accurately ripped
==== Log checksum 53DBE9BF4519818928BC5031E033E16997B5AA0018024CC84C58B238DA6ECE1B ====

Содержание индексной карты (.CUE)

REM GENRE SoundtrackREM DATE 1990REM DISCID 920F1B1EREM COMMENT "ExactAudioCopy v1.1"PERFORMER "Henry Mancini"TITLE "Fear"FILE "01 - Casey's Theme.wav" WAVE TRACK 01 AUDIO TITLE "Casey's Theme" PERFORMER "Henry Mancini" INDEX 01 00:00:00 TRACK 02 AUDIO TITLE "Main Title" PERFORMER "Henry Mancini" INDEX 00 01:41:55FILE "02 - Main Title.wav" WAVE INDEX 01 00:00:00 TRACK 03 AUDIO TITLE "The Urge" PERFORMER "Henry Mancini" INDEX 00 01:51:27FILE "03 - The Urge.wav" WAVE INDEX 01 00:00:00 TRACK 04 AUDIO TITLE "Deadly Delivery" PERFORMER "Henry Mancini" INDEX 00 03:53:38FILE "04 - Deadly Delivery.wav" WAVE INDEX 01 00:00:00 TRACK 05 AUDIO TITLE "Snoopy" PERFORMER "Henry Mancini" INDEX 00 00:29:22FILE "05 - Snoopy.wav" WAVE INDEX 01 00:00:00 TRACK 06 AUDIO TITLE "Ice Cream Truck" PERFORMER "Henry Mancini" INDEX 00 03:33:55FILE "06 - Ice Cream Truck.wav" WAVE INDEX 01 00:00:00 TRACK 07 AUDIO TITLE "Jack's Tune" PERFORMER "Henry Mancini" INDEX 00 00:25:18FILE "07 - Jack's Tune.wav" WAVE INDEX 01 00:00:00 TRACK 08 AUDIO TITLE "Contact" PERFORMER "Henry Mancini" INDEX 00 01:43:27FILE "08 - Contact.wav" WAVE INDEX 01 00:00:00 TRACK 09 AUDIO TITLE "His First Call" PERFORMER "Henry Mancini" INDEX 00 03:13:50FILE "09 - His First Call.wav" WAVE INDEX 01 00:00:00 TRACK 10 AUDIO TITLE "Hand To Hand" PERFORMER "Henry Mancini" INDEX 00 00:20:58FILE "10 - Hand To Hand.wav" WAVE INDEX 01 00:00:00 TRACK 11 AUDIO TITLE "Mr. Fear Strikes Again" PERFORMER "Henry Mancini" INDEX 00 00:28:46FILE "11 - Mr. Fear Strikes Again.wav" WAVE INDEX 01 00:00:00 TRACK 12 AUDIO TITLE "Live Killing" PERFORMER "Henry Mancini" INDEX 00 04:55:38FILE "12 - Live Killing.wav" WAVE INDEX 01 00:00:00 TRACK 13 AUDIO TITLE "Low Life" PERFORMER "Henry Mancini" INDEX 00 00:35:16FILE "13 - Low Life.wav" WAVE INDEX 01 00:00:00 TRACK 14 AUDIO TITLE "Trespasser" PERFORMER "Henry Mancini" INDEX 00 02:23:27FILE "14 - Trespasser.wav" WAVE INDEX 01 00:00:00 TRACK 15 AUDIO TITLE "Visions Of Fear" PERFORMER "Henry Mancini" INDEX 00 01:27:50FILE "15 - Visions Of Fear.wav" WAVE INDEX 01 00:00:00 TRACK 16 AUDIO TITLE "Her Greatest Fear" PERFORMER "Henry Mancini" INDEX 00 00:45:26FILE "16 - Her Greatest Fear.wav" WAVE INDEX 01 00:00:00 TRACK 17 AUDIO TITLE "He Knows" PERFORMER "Henry Mancini" INDEX 00 03:36:22FILE "17 - He Knows.wav" WAVE INDEX 01 00:00:00 TRACK 18 AUDIO TITLE "Peek-A-Boo" PERFORMER "Henry Mancini" INDEX 00 01:41:47FILE "18 - Peek-A-Boo.wav" WAVE INDEX 01 00:00:00 TRACK 19 AUDIO TITLE "Hall Of Mirrors" PERFORMER "Henry Mancini" INDEX 00 01:11:09FILE "19 - Hall Of Mirrors.wav" WAVE INDEX 01 00:00:00 TRACK 20 AUDIO TITLE "The Chamber Of Fear" PERFORMER "Henry Mancini" INDEX 00 01:52:15FILE "20 - The Chamber Of Fear.wav" WAVE INDEX 01 00:00:00 TRACK 21 AUDIO TITLE "Mr. Fear Goes Down" PERFORMER "Henry Mancini" INDEX 00 01:05:00FILE "21 - Mr. Fear Goes Down.wav" WAVE INDEX 01 00:00:00 TRACK 22 AUDIO TITLE "Casey's Theme (End Titles)" PERFORMER "Henry Mancini" INDEX 00 00:50:69FILE "22 - Casey's Theme (End Titles).wav" WAVE INDEX 01 00:00:00 TRACK 23 AUDIO TITLE "Carnival Source 1 [Bonus]" PERFORMER "Henry Mancini" INDEX 00 03:00:52FILE "23 - Carnival Source 1 [Bonus].wav" WAVE INDEX 01 00:00:00 TRACK 24 AUDIO TITLE "Carnival Source 2 [Bonus]" PERFORMER "Henry Mancini" INDEX 00 04:00:45FILE "24 - Carnival Source 2 [Bonus].wav" WAVE INDEX 01 00:00:00 TRACK 25 AUDIO TITLE "Carnival Source 3 [Bonus]" PERFORMER "Henry Mancini" INDEX 00 03:42:37FILE "25 - Carnival Source 3 [Bonus].wav" WAVE INDEX 01 00:00:00 TRACK 26 AUDIO TITLE "Carnival Source 4 [Bonus]" PERFORMER "Henry Mancini" INDEX 00 03:24:08FILE "26 - Carnival Source 4 [Bonus].wav" WAVE INDEX 01 00:00:00 TRACK 27 AUDIO TITLE "Jack's Tune (Wild) [Bonus]" PERFORMER "Henry Mancini" INDEX 00 02:21:19FILE "27 - Jack's Tune (Wild) [Bonus].wav" WAVE INDEX 01 00:00:00 TRACK 28 AUDIO TITLE "Airplaine Source [Bonus]" PERFORMER "Henry Mancini" INDEX 00 05:04:43FILE "28 - Airplaine Source [Bonus].wav" WAVE INDEX 01 00:00:00 TRACK 29 AUDIO TITLE "Daybreak America Source [Bonus]" PERFORMER "Henry Mancini" INDEX 00 03:01:58FILE "29 - Daybreak America Source [Bonus].wav" WAVE INDEX 01 00:00:00 TRACK 30 AUDIO TITLE "Actionline News Source [Bonus]" PERFORMER "Henry Mancini" INDEX 00 00:11:27FILE "30 - Actionline News Source [Bonus].wav" WAVE INDEX 01 00:00:00
[teatrix.ru].t14791.torrent 
Торрент: Зарегистрирован [ 2016-02-09 12:50 ] · 7508B91AA3DFCCC319C425F5887EECF947EDB547

Скачать .torrent

Скачать

33 KB

Статус: проверено
Скачан: 0 раз
Размер: 391 MB
terms.php



Быстрый ответ

Имя:

      
Для отправки сообщений необходимо включить JavaScript
Показать сообщения:    

Текущее время: 02-Дек 23:09

Часовой пояс: UTC + 3


Вы можете начинать темы
Вы можете отвечать на сообщения
Вы не можете редактировать свои сообщения
Вы не можете удалять свои сообщения
Вы не можете голосовать в опросах
Вы не можете прикреплять файлы к сообщениям
Вы можете скачивать файлы