(Score) Красный райдинг / Red Riding (Original Music From the Three Films) - 2009, FLAC (tracks+.cue), lossless


Статистика раздачи [Обновить пиров]
Размер:  347 MB   |    Зарегистрирован:  9 месяцев 28 дней   |    Скачан:  0 раз

Полного источника не было: Никогда

Личеров:  6  [  0 KB/s  ]   Подробная статистика пиров
 
   
 
 
 

[Цитировать]

Красный райдинг / Red Riding
Название альбома: Red Riding: Original Music From the Three Films
Жанр: Score
Композитор: Adrian Johnston, Dickon Hinchliffe, Barrington Pheloung
Год выпуска диска: 2009
Год выпуска фильма: 2009
Аудиокодек: FLAC (*.flac)
Тип рипа: tracks+.cue
Битрейт аудио: lossless
Продолжительность: 1:14:14
Источник: скачано с what.cd
Наличие сканов в содержимом раздачи: нет
Треклист:

Adrian Johnston – Red Riding: 1974 [22:26]

01. Eddie (1:37)
02. Devil's Ditch (2:37)
03. Microfiche (1:17)
04. Panegyric (0:57)
05. Paula (1:28)
06. Swan (1:36)
07. Barry's Life's Work (1:30)
08. Shangrila (1:55)
09. Redmoor (2:31)
10. Sunshine Down South (2:11)
11. Karachi Club (2:55)
12. Never Come Back (1:52)

Dickon Hinchliffe – Red Riding: 1980 [32:21]

13. The Ripper (4:07)
14. Your Answer (1:20)
15. The Moors (2:01)
16. The Karachi Club (1:49)
17. The Ridings (1:50)
18. Ripper In The Belly (2:10)
19. The Confession (2:43)
20. Christmas (1:34)
21. Hall's House (2:09)
22. To Fitzwilliam (2:46)
23. Five Men, Five Guns (4:00)
24. The Karachi Club Shooting (3:45)
25. Peace At Last (2:05)

Barrington Pheloung – Red Riding: 1983 [19:26]

26. Jobson's Theme (3:42)
27. Finding Hazel (3:59)
28. Missing Girls (1:49)
29. Love Theme (1:11)
30. Tragic Beauty (1:09)
31. Mandy's Theme (1:17)
32. Lost Children (2:13)
33. Finding Hazel (TV Version) (4:06)

Лог создания рипа

Exact Audio Copy V1.0 beta 3 from 29. August 2011
EAC extraction logfile from 23. September 2015, 1:51
Various Artists / Red Riding (Original Soundtrack)
Used drive : HL-DT-STDVDRAM GHB0N Adapter: 0 ID: 0
Read mode : SecureUtilize accurate stream : YesDefeat audio cache : YesMake use of C2 pointers : No
Read offset correction : 6Overread into Lead-In and Lead-Out : NoFill up missing offset samples with silence : YesDelete leading and trailing silent blocks : NoNull samples used in CRC calculations : YesUsed interface : Native Win32 interface for Win NT & 2000Gap handling : Appended to previous track
Used output format : User Defined EncoderSelected bitrate : 1024 kBit/sQuality : HighAdd ID3 tag : NoCommand line compressor : C:\Program Files (x86)\Exact Audio Copy\Flac\flac.exeAdditional command line options : -8 -V -T "ARTIST=%artist%" -T "TITLE=%title%" -T "ALBUM=%albumtitle%" -T "DATE=%year%" -T "TRACKNUMBER=%tracknr%" -T "GENRE=%genre%" -T "PERFORMER=%albuminterpret%" -T "COMPOSER=%composer%" %haslyrics%--tag-from-file=LYRICS="%lyricsfile%"%haslyrics% -T "ALBUMARTIST=%albumartist%" -T "DISCNUMBER=%cdnumber%" -T "TOTALDISCS=%totalcds%" -T "TOTALTRACKS=%numtracks%" -T "COMMENT=%comment%" %source% -o %dest%
TOC of the extracted CD
Track | Start | Length | Start sector | End sector --------------------------------------------------------- 1 | 0:00.00 | 1:37.07 | 0 | 7281 2 | 1:37.07 | 2:36.47 | 7282 | 19028 3 | 4:13.54 | 1:16.70 | 19029 | 24798 4 | 5:30.49 | 0:57.37 | 24799 | 29110 5 | 6:28.11 | 1:27.69 | 29111 | 35704 6 | 7:56.05 | 1:35.64 | 35705 | 42893 7 | 9:31.69 | 1:29.71 | 42894 | 49639 8 | 11:01.65 | 1:55.17 | 49640 | 58281 9 | 12:57.07 | 2:30.61 | 58282 | 69592 10 | 15:27.68 | 2:11.33 | 69593 | 79450 11 | 17:39.26 | 2:54.61 | 79451 | 92561 12 | 20:34.12 | 1:52.35 | 92562 | 100996 13 | 22:26.47 | 4:06.41 | 100997 | 119487 14 | 26:33.13 | 1:19.54 | 119488 | 125466 15 | 27:52.67 | 2:01.26 | 125467 | 134567 16 | 29:54.18 | 1:49.07 | 134568 | 142749 17 | 31:43.25 | 1:50.35 | 142750 | 151034 18 | 33:33.60 | 2:09.52 | 151035 | 160761 19 | 35:43.37 | 2:43.19 | 160762 | 173005 20 | 38:26.56 | 1:34.34 | 173006 | 180089 21 | 40:01.15 | 2:09.21 | 180090 | 189785 22 | 42:10.36 | 2:46.30 | 189786 | 202265 23 | 44:56.66 | 4:00.09 | 202266 | 220274 24 | 48:57.00 | 3:45.31 | 220275 | 237180 25 | 52:42.31 | 2:05.31 | 237181 | 246586 26 | 54:47.62 | 3:42.32 | 246587 | 263268 27 | 58:30.19 | 3:59.09 | 263269 | 281202 28 | 62:29.28 | 1:49.11 | 281203 | 289388 29 | 64:18.39 | 1:11.09 | 289389 | 294722 30 | 65:29.48 | 1:08.41 | 294723 | 299863 31 | 66:38.14 | 1:17.18 | 299864 | 305656 32 | 67:55.32 | 2:12.40 | 305657 | 315596 33 | 70:07.72 | 4:06.03 | 315597 | 334049
Track 1
Filename C:\RedRiding\01 - Eddie.wav
Pre-gap length 0:00:02.00
Peak level 100.0 % Extraction speed 0.9 X Track quality 100.0 % Test CRC EA470184 Copy CRC EA470184 Track not present in AccurateRip database Copy OK
Track 2
Filename C:\RedRiding\02 - Devil's Ditch.wav
Peak level 100.0 % Extraction speed 1.0 X Track quality 100.0 % Test CRC FB579869 Copy CRC FB579869 Track not present in AccurateRip database Copy OK
Track 3
Filename C:\RedRiding\03 - Microfiche.wav
Peak level 100.0 % Extraction speed 0.9 X Track quality 100.0 % Test CRC 17566F57 Copy CRC 17566F57 Track not present in AccurateRip database Copy OK
Track 4
Filename C:\RedRiding\04 - Panegyric.wav
Peak level 98.9 % Extraction speed 0.8 X Track quality 100.0 % Test CRC 698FA07A Copy CRC 698FA07A Track not present in AccurateRip database Copy OK
Track 5
Filename C:\RedRiding\05 - Paula.wav
Peak level 89.6 % Extraction speed 1.0 X Track quality 100.0 % Test CRC 92D5662F Copy CRC 92D5662F Track not present in AccurateRip database Copy OK
Track 6
Filename C:\RedRiding\06 - Swan.wav
Peak level 100.0 % Extraction speed 1.0 X Track quality 100.0 % Test CRC 24DE91DB Copy CRC 24DE91DB Track not present in AccurateRip database Copy OK
Track 7
Filename C:\RedRiding\07 - Barry's Life's Work.wav
Peak level 100.0 % Extraction speed 0.8 X Track quality 99.8 % Test CRC 558FF708 Copy CRC 558FF708 Track not present in AccurateRip database Copy OK
Track 8
Filename C:\RedRiding\08 - Shangrila.wav
Peak level 88.5 % Extraction speed 1.1 X Track quality 100.0 % Test CRC A8217953 Copy CRC A8217953 Track not present in AccurateRip database Copy OK
Track 9
Filename C:\RedRiding\09 - Redmoor.wav
Peak level 90.2 % Extraction speed 1.3 X Track quality 100.0 % Test CRC 4D5B6652 Copy CRC 4D5B6652 Track not present in AccurateRip database Copy OK
Track 10
Filename C:\RedRiding\10 - Sunshine Down South.wav
Peak level 100.0 % Extraction speed 1.0 X Track quality 99.9 % Test CRC E8610EE6 Copy CRC E8610EE6 Track not present in AccurateRip database Copy OK
Track 11
Filename C:\RedRiding\11 - Karachi Club.wav
Peak level 100.0 % Extraction speed 1.4 X Track quality 100.0 % Test CRC 1CEBBC7D Copy CRC 1CEBBC7D Track not present in AccurateRip database Copy OK
Track 12
Filename C:\RedRiding\12 - Never Come Back.wav
Peak level 100.0 % Extraction speed 1.3 X Track quality 100.0 % Test CRC 9678DE1E Copy CRC 9678DE1E Track not present in AccurateRip database Copy OK
Track 13
Filename C:\RedRiding\13 - The Ripper.wav
Peak level 90.7 % Extraction speed 1.6 X Track quality 100.0 % Test CRC 9FF8BCD5 Copy CRC 9FF8BCD5 Track not present in AccurateRip database Copy OK
Track 14
Filename C:\RedRiding\14 - Your Answer.wav
Peak level 99.9 % Extraction speed 1.3 X Track quality 100.0 % Test CRC 735F7210 Copy CRC 735F7210 Track not present in AccurateRip database Copy OK
Track 15
Filename C:\RedRiding\15 - The Moors.wav
Peak level 83.8 % Extraction speed 1.5 X Track quality 100.0 % Test CRC 4A38D9CD Copy CRC 4A38D9CD Track not present in AccurateRip database Copy OK
Track 16
Filename C:\RedRiding\16 - The Karachi Club.wav
Peak level 97.2 % Extraction speed 1.4 X Track quality 100.0 % Test CRC 00539EB0 Copy CRC 00539EB0 Track not present in AccurateRip database Copy OK
Track 17
Filename C:\RedRiding\17 - The Ridings.wav
Peak level 99.9 % Extraction speed 1.5 X Track quality 100.0 % Test CRC 85FC36F8 Copy CRC 85FC36F8 Track not present in AccurateRip database Copy OK
Track 18
Filename C:\RedRiding\18 - Ripper In The Belly.wav
Peak level 91.2 % Extraction speed 1.6 X Track quality 100.0 % Test CRC 47C909C9 Copy CRC 47C909C9 Track not present in AccurateRip database Copy OK
Track 19
Filename C:\RedRiding\19 - The Confession.wav
Peak level 94.9 % Extraction speed 1.7 X Track quality 100.0 % Test CRC 3B6654B6 Copy CRC 3B6654B6 Track not present in AccurateRip database Copy OK
Track 20
Filename C:\RedRiding\20 - Christmas.wav
Peak level 84.9 % Extraction speed 1.5 X Track quality 100.0 % Test CRC 8DA6A1D8 Copy CRC 8DA6A1D8 Track not present in AccurateRip database Copy OK
Track 21
Filename C:\RedRiding\21 - Hall's House.wav
Peak level 84.2 % Extraction speed 1.7 X Track quality 100.0 % Test CRC 3FB990AB Copy CRC 3FB990AB Track not present in AccurateRip database Copy OK
Track 22
Filename C:\RedRiding\22 - To Fitzwilliam.wav
Peak level 93.0 % Extraction speed 1.8 X Track quality 100.0 % Test CRC D9A398BE Copy CRC D9A398BE Track not present in AccurateRip database Copy OK
Track 23
Filename C:\RedRiding\23 - Five Men, Five Guns.wav
Peak level 93.2 % Extraction speed 2.0 X Track quality 100.0 % Test CRC 7C508B44 Copy CRC 7C508B44 Track not present in AccurateRip database Copy OK
Track 24
Filename C:\RedRiding\24 - The Karachi Club Shooting.wav
Peak level 99.9 % Extraction speed 1.7 X Track quality 99.9 % Test CRC 2C76621D Copy CRC 2C76621D Track not present in AccurateRip database Copy OK
Track 25
Filename C:\RedRiding\25 - Peace At Last.wav
Peak level 81.5 % Extraction speed 1.8 X Track quality 100.0 % Test CRC 52A8AA71 Copy CRC 52A8AA71 Track not present in AccurateRip database Copy OK
Track 26
Filename C:\RedRiding\26 - Jobson's Theme.wav
Peak level 68.1 % Extraction speed 1.8 X Track quality 99.9 % Test CRC 99C98EF5 Copy CRC 99C98EF5 Track not present in AccurateRip database Copy OK
Track 27
Filename C:\RedRiding\27 - Finding Hazel.wav
Peak level 69.2 % Extraction speed 2.2 X Track quality 100.0 % Test CRC C8A553E8 Copy CRC C8A553E8 Track not present in AccurateRip database Copy OK
Track 28
Filename C:\RedRiding\28 - Missing Girls.wav
Peak level 65.5 % Extraction speed 1.8 X Track quality 100.0 % Test CRC 50AB2C9E Copy CRC 50AB2C9E Track not present in AccurateRip database Copy OK
Track 29
Filename C:\RedRiding\29 - Love Theme.wav
Peak level 64.5 % Extraction speed 1.7 X Track quality 100.0 % Test CRC B6CF68E0 Copy CRC B6CF68E0 Track not present in AccurateRip database Copy OK
Track 30
Filename C:\RedRiding\30 - Tragic Beauty.wav
Peak level 66.0 % Extraction speed 1.7 X Track quality 100.0 % Test CRC 69C4996B Copy CRC 69C4996B Track not present in AccurateRip database Copy OK
Track 31
Filename C:\RedRiding\31 - Mandy's Theme.wav
Peak level 42.6 % Extraction speed 1.7 X Track quality 100.0 % Test CRC F8F2C710 Copy CRC F8F2C710 Track not present in AccurateRip database Copy OK
Track 32
Filename C:\RedRiding\32 - Lost Children.wav
Peak level 54.6 % Extraction speed 2.1 X Track quality 100.0 % Test CRC D394D72A Copy CRC D394D72A Track not present in AccurateRip database Copy OK
Track 33
Filename C:\RedRiding\33 - Finding Hazel (TV Version).wav
Peak level 67.5 % Extraction speed 2.1 X Track quality 99.9 % Test CRC 21CD807E Copy CRC 21CD807E Track not present in AccurateRip database Copy OK
None of the tracks are present in the AccurateRip database
No errors occurred
End of status report
---- CUETools DB Plugin V2.1.3
[CTDB TOCID: 40osjVDUYRrOtrFtS._juWdAftw-] disk not present in database, Submit result: 40osjVDUYRrOtrFtS._juWdAftw- has been uploaded
==== Log checksum D2E4FA8A25A6D7BD6A5835561D12342A927C9D6F6E0EE9EF882587B3B93475B4 ====

Содержание индексной карты (.CUE)

REM GENRE SoundtrackREM DATE 2009REM DISCID EC116621REM COMMENT "ExactAudioCopy v1.0b3"PERFORMER "Various Artists"TITLE "Red Riding (Original Soundtrack)"FILE "01 - Eddie.flac" FLAC TRACK 01 AUDIO TITLE "Eddie" PERFORMER "Adrian Johnston" ISRC GBAJC0900042 INDEX 01 00:00:00FILE "02 - Devil's Ditch.flac" FLAC TRACK 02 AUDIO TITLE "Devil's Ditch" PERFORMER "Adrian Johnston" ISRC GBAJC0900043 INDEX 01 00:00:00FILE "03 - Microfiche.flac" FLAC TRACK 03 AUDIO TITLE "Microfiche" PERFORMER "Adrian Johnston" ISRC GBAJC0900044 INDEX 01 00:00:00FILE "04 - Panegyric.flac" FLAC TRACK 04 AUDIO TITLE "Panegyric" PERFORMER "Adrian Johnston" ISRC GBAJC0900045 INDEX 01 00:00:00FILE "05 - Paula.flac" FLAC TRACK 05 AUDIO TITLE "Paula" PERFORMER "Adrian Johnston" ISRC GBAJC0900046 INDEX 01 00:00:00FILE "06 - Swan.flac" FLAC TRACK 06 AUDIO TITLE "Swan" PERFORMER "Adrian Johnston" ISRC GBAJC0900047 INDEX 01 00:00:00FILE "07 - Barry's Life's Work.flac" FLAC TRACK 07 AUDIO TITLE "Barry's Life's Work" PERFORMER "Adrian Johnston" ISRC GBAJC0900048 INDEX 01 00:00:00FILE "08 - Shangrila.flac" FLAC TRACK 08 AUDIO TITLE "Shangrila" PERFORMER "Adrian Johnston" ISRC GBAJC0900049 INDEX 01 00:00:00FILE "09 - Redmoor.flac" FLAC TRACK 09 AUDIO TITLE "Redmoor" PERFORMER "Adrian Johnston" ISRC GBAJC0900050 INDEX 01 00:00:00FILE "10 - Sunshine Down South.flac" FLAC TRACK 10 AUDIO TITLE "Sunshine Down South" PERFORMER "Adrian Johnston" ISRC GBAJC0900051 INDEX 01 00:00:00FILE "11 - Karachi Club.flac" FLAC TRACK 11 AUDIO TITLE "Karachi Club" PERFORMER "Adrian Johnston" ISRC GBAJC0900051 INDEX 01 00:00:00FILE "12 - Never Come Back.flac" FLAC TRACK 12 AUDIO TITLE "Never Come Back" PERFORMER "Adrian Johnston" ISRC GBAJC0900053 INDEX 01 00:00:00FILE "13 - The Ripper.flac" FLAC TRACK 13 AUDIO TITLE "The Ripper" PERFORMER "Dickon Hinchliffe" ISRC GBAJC0900054 INDEX 01 00:00:00FILE "14 - Your Answer.flac" FLAC TRACK 14 AUDIO TITLE "Your Answer" PERFORMER "Dickon Hinchliffe" ISRC GBAJC0900055 INDEX 01 00:00:00FILE "15 - The Moors.flac" FLAC TRACK 15 AUDIO TITLE "The Moors" PERFORMER "Dickon Hinchliffe" ISRC GBAJC0900056 INDEX 01 00:00:00FILE "16 - The Karachi Club.flac" FLAC TRACK 16 AUDIO TITLE "The Karachi Club" PERFORMER "Dickon Hinchliffe" ISRC GBAJC0900057 INDEX 01 00:00:00FILE "17 - The Ridings.flac" FLAC TRACK 17 AUDIO TITLE "The Ridings" PERFORMER "Dickon Hinchliffe" ISRC GBAJC0900058 INDEX 01 00:00:00FILE "18 - Ripper In The Belly.flac" FLAC TRACK 18 AUDIO TITLE "Ripper In The Belly" PERFORMER "Dickon Hinchliffe" ISRC GBAJC0900064 INDEX 01 00:00:00FILE "19 - The Confession.flac" FLAC TRACK 19 AUDIO TITLE "The Confession" PERFORMER "Dickon Hinchliffe" ISRC GBAJC0900063 INDEX 01 00:00:00FILE "20 - Christmas.flac" FLAC TRACK 20 AUDIO TITLE "Christmas" PERFORMER "Dickon Hinchliffe" ISRC GBAJC0900065 INDEX 01 00:00:00FILE "21 - Hall's House.flac" FLAC TRACK 21 AUDIO TITLE "Hall's House" PERFORMER "Dickon Hinchliffe" ISRC GBAJC0900062 INDEX 01 00:00:00FILE "22 - To Fitzwilliam.flac" FLAC TRACK 22 AUDIO TITLE "To Fitzwilliam" PERFORMER "Dickon Hinchliffe" ISRC GBAJC0900067 INDEX 01 00:00:00FILE "23 - Five Men, Five Guns.flac" FLAC TRACK 23 AUDIO TITLE "Five Men, Five Guns" PERFORMER "Dickon Hinchliffe" ISRC GBAJC0900068 INDEX 01 00:00:00FILE "24 - The Karachi Club Shooting.flac" FLAC TRACK 24 AUDIO TITLE "The Karachi Club Shooting" PERFORMER "Dickon Hinchliffe" ISRC GBAJC0900069 INDEX 01 00:00:00FILE "25 - Peace At Last.flac" FLAC TRACK 25 AUDIO TITLE "Peace At Last" PERFORMER "Dickon Hinchliffe" ISRC GBAJC0900070 INDEX 01 00:00:00FILE "26 - Jobson's Theme.flac" FLAC TRACK 26 AUDIO TITLE "Jobson's Theme" PERFORMER "Barrington Pheloung" ISRC GBAJC0900071 INDEX 01 00:00:00FILE "27 - Finding Hazel.flac" FLAC TRACK 27 AUDIO TITLE "Finding Hazel" PERFORMER "Barrington Pheloung" ISRC GBAJC0900072 INDEX 01 00:00:00FILE "28 - Missing Girls.flac" FLAC TRACK 28 AUDIO TITLE "Missing Girls" PERFORMER "Barrington Pheloung" ISRC GBAJC0900073 INDEX 01 00:00:00FILE "29 - Love Theme.flac" FLAC TRACK 29 AUDIO TITLE "Love Theme" PERFORMER "Barrington Pheloung" ISRC GBAJC0900075 INDEX 01 00:00:00FILE "30 - Tragic Beauty.flac" FLAC TRACK 30 AUDIO TITLE "Tragic Beauty" PERFORMER "Barrington Pheloung" ISRC GBAJC0900074 INDEX 01 00:00:00FILE "31 - Mandy's Theme.flac" FLAC TRACK 31 AUDIO TITLE "Mandy's Theme" PERFORMER "Barrington Pheloung" ISRC GBAJC0900077 INDEX 01 00:00:00FILE "32 - Lost Children.flac" FLAC TRACK 32 AUDIO TITLE "Lost Children" PERFORMER "Barrington Pheloung" ISRC GBAJC0900076 INDEX 01 00:00:00FILE "33 - Finding Hazel (TV Version).flac" FLAC TRACK 33 AUDIO TITLE "Finding Hazel (TV Version)" PERFORMER "Barrington Pheloung" ISRC GBAJC0900093 INDEX 01 00:00:00

Лог проверки качества

-----------------------
DON'T MODIFY THIS FILE
-----------------------
PERFORMER: auCDtect Task Manager, ver. 1.6.0 RC1 build 1.6.0.1Copyright (c) 2008-2010 y-soft. All rights reservedhttp://y-soft.org
ANALYZER: auCDtect: CD records authenticity detector, version 0.8.2Copyright (c) 2004 Oleg Berngardt. All rights reserved.Copyright (c) 2004 Alexander Djourik. All rights reserved.
FILE: 33 - Finding Hazel (TV Version).flac Size: 23762282 Hash: 6921977F8766AC8D3EB044B0A91E301B Accuracy: -m0 Conclusion: CDDA 100% Signature: 97788537CF40BD6B1DBE6612A1661B79371C1875FILE: 32 - Lost Children.flac Size: 10164982 Hash: DD7F7F09A2267C60D73EE256F2A212AD Accuracy: -m0 Conclusion: CDDA 100% Signature: 0CBE2FD877D291EB1A84AD366A147F8321817E63FILE: 31 - Mandy's Theme.flac Size: 6901552 Hash: E385C2685FADFAFE70A53F2173021CA7 Accuracy: -m0 Conclusion: CDDA 100% Signature: 70DABA854CAABA667BEF6C767E3FB96CBDEB23AFFILE: 30 - Tragic Beauty.flac Size: 6537019 Hash: C834E68F4F773759E3BD319C0DD8C863 Accuracy: -m0 Conclusion: CDDA 100% Signature: 96E768C4816871EE9322E1E78967B7759BC35D3EFILE: 29 - Love Theme.flac Size: 6897574 Hash: 0A9EDB10B69D839E7E91C140C4D56026 Accuracy: -m0 Conclusion: CDDA 99% Signature: AAA59C3C42D4441ECAC043E5C11D28CDCD5D016AFILE: 28 - Missing Girls.flac Size: 9316235 Hash: 2EA83C5DB7AA047B96A40CFDF92B2BF4 Accuracy: -m0 Conclusion: CDDA 99% Signature: 6C4FB11D7EE4F510F1355D155B7F4841C2B3F58FFILE: 27 - Finding Hazel.flac Size: 24831247 Hash: F4804BA88F6ED6C92CE5685A5A81A465 Accuracy: -m0 Conclusion: CDDA 99% Signature: 9D3EEDB19D0023420F1261BEEB4AFF7F4689D90DFILE: 26 - Jobson's Theme.flac Size: 21353199 Hash: 65B0EFF1007995DBBDC33AEF273F3869 Accuracy: -m0 Conclusion: CDDA 100% Signature: 86FFD7A207AFF925998F5B14D334319E5D190729FILE: 25 - Peace At Last.flac Size: 12571749 Hash: 014BAD1BFD5A0E1826944B15C33F1E9B Accuracy: -m0 Conclusion: CDDA 100% Signature: 3F715ED5103E489945713BD90B6CCB6F05410830FILE: 24 - The Karachi Club Shooting.flac Size: 16319331 Hash: C2A09F71D13609A83C5E5562B2C697D9 Accuracy: -m0 Conclusion: CDDA 99% Signature: 55CB93917DE656A59C8E270DE6465C54534744B0FILE: 23 - Five Men, Five Guns.flac Size: 18774502 Hash: 210C91507F4BAC8C745A9572DD33EDE2 Accuracy: -m0 Conclusion: CDDA 100% Signature: 45C9878BDC1E521FF7F3619F7A01D7EFFAC92633FILE: 22 - To Fitzwilliam.flac Size: 12996303 Hash: 883F7BD310E8447F30AC68A86843EC37 Accuracy: -m0 Conclusion: CDDA 99% Signature: 1158D965F74FBDEBA5C27B59ECBADE12303A863BFILE: 21 - Hall's House.flac Size: 9734696 Hash: CECF135EB6883CA58625DCC80C68E19E Accuracy: -m0 Conclusion: CDDA 100% Signature: C28C060BDDA2E64FE5B1CA60D0755098732A5E8BFILE: 20 - Christmas.flac Size: 7357961 Hash: BD4AA5A0013999AB2F972A65E1E22DF5 Accuracy: -m0 Conclusion: CDDA 100% Signature: EF979039669B73486239FCD88377B31986DBFFECFILE: 19 - The Confession.flac Size: 14547544 Hash: F53B95AB08B6D0B2020C4741E4722723 Accuracy: -m0 Conclusion: CDDA 100% Signature: DA5108BEDE22283AEB09FDC0916CC61BDBC7BA8BFILE: 18 - Ripper In The Belly.flac Size: 10160363 Hash: 2E1D2A50A5CF557183CB2973786529A8 Accuracy: -m0 Conclusion: CDDA 100% Signature: 3F2AA41325F530C8FD7B04DF00CC4CF30068CF91FILE: 17 - The Ridings.flac Size: 8031120 Hash: 3E618B8F062BA02A6E3F958DA1A425E2 Accuracy: -m0 Conclusion: CDDA 100% Signature: 85D0E43DDF6C384729279A5C2F4587187BFA7D37FILE: 16 - The Karachi Club.flac Size: 7845486 Hash: 33DE1F7855176ADCA4F092CDD12C7C6E Accuracy: -m0 Conclusion: CDDA 100% Signature: E3188E27628ABA3089C39B6E588C35C51877F4B5FILE: 15 - The Moors.flac Size: 10171391 Hash: 3D1A8CAE36D2EE807A06BD3150D1937A Accuracy: -m0 Conclusion: CDDA 100% Signature: 126D0772C71A0657E8CD9E86DD4255F9FD532662FILE: 14 - Your Answer.flac Size: 6064774 Hash: 83AF4C91A5B86DF690137B03DC52A2B0 Accuracy: -m0 Conclusion: CDDA 100% Signature: A2376F70C5D5907F649185DB9A1BDFEE8FA3D4D7FILE: 13 - The Ripper.flac Size: 20030577 Hash: 67DDB69D00CDEB5AFABC1DB6C07A679F Accuracy: -m0 Conclusion: CDDA 100% Signature: 1343889FD51DC0793214F47DA49660D8E6DD640EFILE: 12 - Never Come Back.flac Size: 8844634 Hash: 398D0E10865A4CAA5641D17E333B4D49 Accuracy: -m0 Conclusion: CDDA 100% Signature: 853529FEC179580B634D87A3D7E6A9B9D2CFAC46FILE: 11 - Karachi Club.flac Size: 12352265 Hash: EB35767FB3135BA77F056F46016B6D6D Accuracy: -m0 Conclusion: CDDA 100% Signature: 28D2AEBADD3D8F2C51BFA7C4BBAED919ADF9FE6CFILE: 10 - Sunshine Down South.flac Size: 10402521 Hash: 5DD985BD59873864C79EBFE783AA586F Accuracy: -m0 Conclusion: CDDA 92% Signature: 3CF93FADF0FEAA33D00950542890EB67F6D1A0C8FILE: 09 - Redmoor.flac Size: 11743991 Hash: 6B7686841D608A8237902D0DC6D449D8 Accuracy: -m0 Conclusion: CDDA 100% Signature: 56D2B85F7EECD9B3A4837A737849026F36246F9CFILE: 08 - Shangrila.flac Size: 9450469 Hash: 00AC3CB45FB30001C995B931175885C4 Accuracy: -m0 Conclusion: CDDA 92% Signature: 6DC70106CABA0A483C04CAD915E57ABAC3514B0AFILE: 07 - Barry's Life's Work.flac Size: 6009472 Hash: F851C96B6292DADFC78559E7B45B4B91 Accuracy: -m0 Conclusion: CDDA 100% Signature: A53098628BE72F030DDCAD5A49EF81D9A84640EBFILE: 06 - Swan.flac Size: 6171167 Hash: 3222087E3C62ACCBD1AE1C63512A268D Accuracy: -m0 Conclusion: CDDA 100% Signature: 225B2767A58F29D7F4576C35F748908844834A60FILE: 05 - Paula.flac Size: 7787117 Hash: 296945E521E1BC6D11089DDC38AE041B Accuracy: -m0 Conclusion: CDDA 94% Signature: 2554671C3BB552EF88AEB6536F556876FBAE52D5FILE: 04 - Panegyric.flac Size: 4082617 Hash: B100201F8E21494E36045CFA67EF5B17 Accuracy: -m0 Conclusion: CDDA 86% Signature: 7F181A60FA3F0BB2CBB6C4F4836A880C35D9C15CFILE: 03 - Microfiche.flac Size: 5568769 Hash: 16C6FCEDE67DC012398DF3C5D80BFF9F Accuracy: -m0 Conclusion: CDDA 100% Signature: 13AB81227A1CE759AF6F27BD543974AB34DE23E9FILE: 02 - Devil's Ditch.flac Size: 9511079 Hash: 6DB5EC79EAED63ACAA0A285DC47E4F79 Accuracy: -m0 Conclusion: CDDA 100% Signature: D7803B25923679658FB8447F2D02FFB5C7502DB2FILE: 01 - Eddie.flac Size: 7244736 Hash: D632E7D4BB4E32C941AFF8467A2CDDD7 Accuracy: -m0 Conclusion: CDDA 100% Signature: 81ECF8C70EB7ABFE3DB34584F3D3E2C069F2EDB7
[teatrix.ru].t14792.torrent 
Торрент: Зарегистрирован [ 2016-02-09 12:50 ] · EE14BE396ACA7FABEF5038B9064824D3919B6583

Скачать .torrent

Скачать

16 KB

Статус: проверено
Скачан: 0 раз
Размер: 347 MB
terms.php



Быстрый ответ

Имя:

      
Для отправки сообщений необходимо включить JavaScript
Показать сообщения:    

Текущее время: 09-Дек 06:53

Часовой пояс: UTC + 3


Вы можете начинать темы
Вы можете отвечать на сообщения
Вы не можете редактировать свои сообщения
Вы не можете удалять свои сообщения
Вы не можете голосовать в опросах
Вы не можете прикреплять файлы к сообщениям
Вы можете скачивать файлы