(Score) Пришельцы в Америке / Just Visiting (by John Powell) - 2001, FLAC (tracks+.cue), lossless


Статистика раздачи [Обновить пиров]
Размер:  203 MB   |    Зарегистрирован:  10 месяцев   |    Скачан:  0 раз

Полного источника не было: Никогда

Личеров:  6  [  0 KB/s  ]   Подробная статистика пиров
 
   
 
 
 

[Цитировать]

Пришельцы в Америке / Just Visiting-Жанр: Score
Композитор: John Powell
Год выпуска диска: 2001
Производитель диска: USA
Издатель (лейбл): Varèse Sarabande
Номер по каталогу: 302 066 239 2-Аудиокодек: FLAC (*.flac)
Тип рипа: tracks+.cue
Битрейт аудио: lossless
Продолжительность: 00:36:14
Источник: what.cd / toadkc
Наличие сканов в содержимом раздачи: да-Ссылки: Кинопоиск | IMDB | Wikipedia | SoundtrackCollector

Треклист

1. Thibault Goes To England (02:39)
2. The Hag's Hut (02:20)
3. Rosaline And Thibault (01:12)
4. Halucination And Execution (01:10)
5. To Chicago (00:40)
6. Kill The Car (02:00)
7. Thibault Sees Julia (01:16)
8. My Cousin, My Descendant (01:29)
9. Ode De Toilet (00:21)
10. Tub For Two (01:03)
11. So Many Descendants (00:21)
12. Kissing Cousins (00:39)
13. Searching For A Wizard (00:50)
14. Another Visitor (00:44)
15. On The Bridge (01:55)
16. Feel Like A Lady (01:04)
17. Andre Can't Ask (00:35)
18. The Wizard Pulls Himself Together (01:03)
19. The Wizard Cooks (00:40)
20. Andre Asks To Stay (00:51)
21. Not A Bunny (01:04)
22. The Big Chase (02:02)
23. What Will I Do Without You (01:46)
24. Thibault And The Wizard Return Home (01:56)
25. In The IceHall (01:04)
26. Hunter Gets It / Julia Sees The Castle (01:44)
27. You Time Will Come (02:51)

Лог создания рипа

Exact Audio Copy V0.99 prebeta 5 from 4. May 2009
EAC extraction logfile from 30. August 2010, 22:51
John Powell / Just Visiting
Used drive : LITE-ON DVDRW SHM-165H6S Adapter: 0 ID: 1
Read mode : SecureUtilize accurate stream : YesDefeat audio cache : YesMake use of C2 pointers : No
Read offset correction : 6Overread into Lead-In and Lead-Out : NoFill up missing offset samples with silence : YesDelete leading and trailing silent blocks : NoNull samples used in CRC calculations : YesUsed interface : Native Win32 interface for Win NT & 2000Gap handling : Appended to previous track
Used output format : User Defined EncoderSelected bitrate : 320 kBit/sQuality : HighAdd ID3 tag : NoCommand line compressor : C:\Program Files (x86)\Exact Audio Copy\Flac\flac.exeAdditional command line options : -V -8 -T "artist=%a" -T "title=%t" -T "album=%g" -T "date=%y" -T "tracknumber=%n" -T "genre=%m" %s
TOC of the extracted CD
Track | Start | Length | Start sector | End sector --------------------------------------------------------- 1 | 0:00.00 | 2:39.37 | 0 | 11961 2 | 2:39.37 | 2:28.26 | 11962 | 23087 3 | 5:07.63 | 1:31.59 | 23088 | 29971 4 | 6:39.47 | 1:10.35 | 29972 | 35256 5 | 7:50.07 | 0:47.40 | 35257 | 38821 6 | 8:37.47 | 1:59.62 | 38822 | 47808 7 | 10:37.34 | 1:16.32 | 47809 | 53540 8 | 11:53.66 | 1:29.01 | 53541 | 60216 9 | 13:22.67 | 0:26.66 | 60217 | 62232 10 | 13:49.58 | 1:03.34 | 62233 | 66991 11 | 14:53.17 | 0:21.19 | 66992 | 68585 12 | 15:14.36 | 0:38.63 | 68586 | 71498 13 | 15:53.24 | 0:50.11 | 71499 | 75259 14 | 16:43.35 | 0:44.19 | 75260 | 78578 15 | 17:27.54 | 1:55.22 | 78579 | 87225 16 | 19:23.01 | 1:04.32 | 87226 | 92057 17 | 20:27.33 | 0:35.03 | 92058 | 94685 18 | 21:02.36 | 1:02.59 | 94686 | 99394 19 | 22:05.20 | 0:39.50 | 99395 | 102369 20 | 22:44.70 | 0:57.11 | 102370 | 106655 21 | 23:42.06 | 1:04.21 | 106656 | 111476 22 | 24:46.27 | 2:01.65 | 111477 | 120616 23 | 26:48.17 | 1:45.60 | 120617 | 128551 24 | 28:34.02 | 1:52.37 | 128552 | 136988 25 | 30:26.39 | 1:08.63 | 136989 | 142151 26 | 31:35.27 | 1:43.50 | 142152 | 149926 27 | 33:19.02 | 2:56.73 | 149927 | 163199
Track 1
Filename E:\EAC Rips\John Powell -2001- Just Visiting\01 - Thibault Goes To England.wav
Pre-gap length 0:00:02.00
Peak level 95.4 % Track quality 100.0 % Test CRC F640CE3E Copy CRC F640CE3E Track not present in AccurateRip database Copy OK
Track 2
Filename E:\EAC Rips\John Powell -2001- Just Visiting\02 - The Hag's Hut.wav
Peak level 96.4 % Track quality 100.0 % Test CRC 22CF9602 Copy CRC 22CF9602 Track not present in AccurateRip database Copy OK
Track 3
Filename E:\EAC Rips\John Powell -2001- Just Visiting\03 - Rosaline & Thibault.wav
Peak level 73.8 % Track quality 100.0 % Test CRC D56CC6B5 Copy CRC D56CC6B5 Track not present in AccurateRip database Copy OK
Track 4
Filename E:\EAC Rips\John Powell -2001- Just Visiting\04 - Hallucination And Execution.wav
Peak level 94.9 % Track quality 100.0 % Test CRC 37D9716A Copy CRC 37D9716A Track not present in AccurateRip database Copy OK
Track 5
Filename E:\EAC Rips\John Powell -2001- Just Visiting\05 - To Chicago.wav
Peak level 95.2 % Track quality 100.0 % Test CRC E48C2D2A Copy CRC E48C2D2A Track not present in AccurateRip database Copy OK
Track 6
Filename E:\EAC Rips\John Powell -2001- Just Visiting\06 - Kill The Car.wav
Pre-gap length 0:00:00.01
Peak level 95.6 % Track quality 100.0 % Test CRC 27C9F1E2 Copy CRC 27C9F1E2 Track not present in AccurateRip database Copy OK
Track 7
Filename E:\EAC Rips\John Powell -2001- Just Visiting\07 - Thibault Sees Julia.wav
Peak level 94.9 % Track quality 100.0 % Test CRC 31AE8F25 Copy CRC 31AE8F25 Track not present in AccurateRip database Copy OK
Track 8
Filename E:\EAC Rips\John Powell -2001- Just Visiting\08 - My Cousin, My Descendant.wav
Peak level 94.8 % Track quality 99.8 % Test CRC A57EC1A5 Copy CRC A57EC1A5 Track not present in AccurateRip database Copy OK
Track 9
Filename E:\EAC Rips\John Powell -2001- Just Visiting\09 - Ode De Toilet.wav
Peak level 72.7 % Track quality 99.6 % Test CRC 4F3C387D Copy CRC 4F3C387D Track not present in AccurateRip database Copy OK
Track 10
Filename E:\EAC Rips\John Powell -2001- Just Visiting\10 - Tub For Two.wav
Peak level 84.8 % Track quality 100.0 % Test CRC BF9D38C5 Copy CRC BF9D38C5 Track not present in AccurateRip database Copy OK
Track 11
Filename E:\EAC Rips\John Powell -2001- Just Visiting\11 - So Many Descendants.wav
Peak level 81.2 % Track quality 99.4 % Test CRC 4A78BC3C Copy CRC 4A78BC3C Track not present in AccurateRip database Copy OK
Track 12
Filename E:\EAC Rips\John Powell -2001- Just Visiting\12 - Kissing Cousins.wav
Peak level 89.0 % Track quality 99.7 % Test CRC EA56EB60 Copy CRC EA56EB60 Track not present in AccurateRip database Copy OK
Track 13
Filename E:\EAC Rips\John Powell -2001- Just Visiting\13 - Searching For A Wizard.wav
Peak level 95.2 % Track quality 99.7 % Test CRC A5C2EC17 Copy CRC A5C2EC17 Track not present in AccurateRip database Copy OK
Track 14
Filename E:\EAC Rips\John Powell -2001- Just Visiting\14 - Another Visitor.wav
Peak level 78.4 % Track quality 100.0 % Test CRC 3A4425A2 Copy CRC 3A4425A2 Track not present in AccurateRip database Copy OK
Track 15
Filename E:\EAC Rips\John Powell -2001- Just Visiting\15 - On The Bridge.wav
Peak level 95.4 % Track quality 100.0 % Test CRC F3CFCD21 Copy CRC F3CFCD21 Track not present in AccurateRip database Copy OK
Track 16
Filename E:\EAC Rips\John Powell -2001- Just Visiting\16 - Feel Like A Lady.wav
Peak level 89.8 % Track quality 99.8 % Test CRC 6AD89C7F Copy CRC 6AD89C7F Track not present in AccurateRip database Copy OK
Track 17
Filename E:\EAC Rips\John Powell -2001- Just Visiting\17 - Andre Can't Ask.wav
Peak level 86.1 % Track quality 100.0 % Test CRC B93B2054 Copy CRC B93B2054 Track not present in AccurateRip database Copy OK
Track 18
Filename E:\EAC Rips\John Powell -2001- Just Visiting\18 - The Wizard Pulls Himself Together.wav
Peak level 94.6 % Track quality 100.0 % Test CRC 13CC6679 Copy CRC 13CC6679 Track not present in AccurateRip database Copy OK
Track 19
Filename E:\EAC Rips\John Powell -2001- Just Visiting\19 - The Wizard Cookst.wav
Peak level 58.3 % Track quality 100.0 % Test CRC AF9CD210 Copy CRC AF9CD210 Track not present in AccurateRip database Copy OK
Track 20
Filename E:\EAC Rips\John Powell -2001- Just Visiting\20 - Andre Asks To Stay.wav
Peak level 72.7 % Track quality 100.0 % Test CRC 3115477E Copy CRC 3115477E Track not present in AccurateRip database Copy OK
Track 21
Filename E:\EAC Rips\John Powell -2001- Just Visiting\21 - Not A Bunny.wav
Peak level 76.4 % Track quality 100.0 % Test CRC AB2C41E0 Copy CRC AB2C41E0 Track not present in AccurateRip database Copy OK
Track 22
Filename E:\EAC Rips\John Powell -2001- Just Visiting\22 - The Big Chase.wav
Peak level 94.9 % Track quality 99.9 % Test CRC DFF5B283 Copy CRC DFF5B283 Track not present in AccurateRip database Copy OK
Track 23
Filename E:\EAC Rips\John Powell -2001- Just Visiting\23 - What Will I Do Without You.wav
Peak level 82.1 % Track quality 100.0 % Test CRC A70E2C00 Copy CRC A70E2C00 Track not present in AccurateRip database Copy OK
Track 24
Filename E:\EAC Rips\John Powell -2001- Just Visiting\24 - Thibault And The Wizard Return Home.wav
Peak level 93.8 % Track quality 100.0 % Test CRC EADCFBC3 Copy CRC EADCFBC3 Track not present in AccurateRip database Copy OK
Track 25
Filename E:\EAC Rips\John Powell -2001- Just Visiting\25 - In The Icehall.wav
Peak level 70.9 % Track quality 100.0 % Test CRC 79B0A432 Copy CRC 79B0A432 Track not present in AccurateRip database Copy OK
Track 26
Filename E:\EAC Rips\John Powell -2001- Just Visiting\26 - Hunter Gets It - Julia Sees The Castle.wav
Peak level 88.2 % Track quality 100.0 % Test CRC BAA30935 Copy CRC BAA30935 Track not present in AccurateRip database Copy OK
Track 27
Filename E:\EAC Rips\John Powell -2001- Just Visiting\27 - Your Time Will Comett.wav
Peak level 76.7 % Track quality 99.9 % Test CRC 2A0EF918 Copy CRC 2A0EF918 Track not present in AccurateRip database Copy OK
None of the tracks are present in the AccurateRip database
No errors occurred
End of status report

Содержание индексной карты (.CUE)

REM GENRE SoundtrackREM DATE 2001REM DISCID 6708801BREM COMMENT "ExactAudioCopy v0.99pb5"FILE "01 - Thibault Goes To England.wav" WAVE TRACK 01 AUDIO INDEX 01 00:00:00FILE "02 - The Hag's Hut.wav" WAVE TRACK 02 AUDIO INDEX 01 00:00:00FILE "03 - Rosaline & Thibault.wav" WAVE TRACK 03 AUDIO INDEX 01 00:00:00FILE "04 - Hallucination And Execution.wav" WAVE TRACK 04 AUDIO INDEX 01 00:00:00FILE "05 - To Chicago.wav" WAVE TRACK 05 AUDIO INDEX 01 00:00:00 TRACK 06 AUDIO INDEX 00 00:47:39FILE "06 - Kill The Car.wav" WAVE INDEX 01 00:00:00FILE "07 - Thibault Sees Julia.wav" WAVE TRACK 07 AUDIO INDEX 01 00:00:00FILE "08 - My Cousin, My Descendant.wav" WAVE TRACK 08 AUDIO INDEX 01 00:00:00FILE "09 - Ode De Toilet.wav" WAVE TRACK 09 AUDIO INDEX 01 00:00:00FILE "10 - Tub For Two.wav" WAVE TRACK 10 AUDIO INDEX 01 00:00:00FILE "11 - So Many Descendants.wav" WAVE TRACK 11 AUDIO INDEX 01 00:00:00FILE "12 - Kissing Cousins.wav" WAVE TRACK 12 AUDIO INDEX 01 00:00:00FILE "13 - Searching For A Wizard.wav" WAVE TRACK 13 AUDIO INDEX 01 00:00:00FILE "14 - Another Visitor.wav" WAVE TRACK 14 AUDIO INDEX 01 00:00:00FILE "15 - On The Bridge.wav" WAVE TRACK 15 AUDIO INDEX 01 00:00:00FILE "16 - Feel Like A Lady.wav" WAVE TRACK 16 AUDIO INDEX 01 00:00:00FILE "17 - Andre Can't Ask.wav" WAVE TRACK 17 AUDIO INDEX 01 00:00:00FILE "18 - The Wizard Pulls Himself Together.wav" WAVE TRACK 18 AUDIO INDEX 01 00:00:00FILE "19 - The Wizard Cookst.wav" WAVE TRACK 19 AUDIO INDEX 01 00:00:00FILE "20 - Andre Asks To Stay.wav" WAVE TRACK 20 AUDIO INDEX 01 00:00:00FILE "21 - Not A Bunny.wav" WAVE TRACK 21 AUDIO INDEX 01 00:00:00FILE "22 - The Big Chase.wav" WAVE TRACK 22 AUDIO INDEX 01 00:00:00FILE "23 - What Will I Do Without You.wav" WAVE TRACK 23 AUDIO INDEX 01 00:00:00FILE "24 - Thibault And The Wizard Return Home.wav" WAVE TRACK 24 AUDIO INDEX 01 00:00:00FILE "25 - In The Icehall.wav" WAVE TRACK 25 AUDIO INDEX 01 00:00:00FILE "26 - Hunter Gets It - Julia Sees The Castle.wav" WAVE TRACK 26 AUDIO INDEX 01 00:00:00FILE "27 - Your Time Will Comett.wav" WAVE TRACK 27 AUDIO INDEX 01 00:00:00
[teatrix.ru].t14793.torrent 
Торрент: Зарегистрирован [ 2016-02-09 12:50 ] · D2F40086B1A612032D711CEA78253E31379DBA1D

Скачать .torrent

Скачать

18 KB

Статус: проверено
Скачан: 0 раз
Размер: 203 MB
terms.php



Быстрый ответ

Имя:

      
Для отправки сообщений необходимо включить JavaScript
Показать сообщения:    

Текущее время: 09-Дек 18:28

Часовой пояс: UTC + 3


Вы можете начинать темы
Вы можете отвечать на сообщения
Вы не можете редактировать свои сообщения
Вы не можете удалять свои сообщения
Вы не можете голосовать в опросах
Вы не можете прикреплять файлы к сообщениям
Вы можете скачивать файлы