Вера Глаголева. "Меня Обижать не Советую" (Екатерина Кругликова) [2016, Документальный, HDTVRip-AVC]


Статистика раздачи [Обновить пиров]
Размер:  545 MB   |    Зарегистрирован:  9 месяцев 23 дня   |    Скачан:  0 раз

Полного источника не было: Никогда

Личеров:  3  [  0 KB/s  ]   Подробная статистика пиров
 
   
 
 
 

[Цитировать]

Вера Глаголева. "Меня Обижать не Советую"- Дата/Год выпуска: 2016
Страна: Россия | ТК "Останкино"
Телеканал: Первый Канала HD
Жанр: Документальный
Продолжительность: 0:45:00
Режиссер: Екатерина Кругликова-Описание: Веру Глаголеву режиссеры называют самородком. Актриса обладает природным актерским талантом и давно завоевала своего зрителя. Завоевывать и побеждать – вообще в ее характере. Ей было всего 16 лет, когда она стала мастером спорта СССР по стрельбе из лука, одному из тяжелейших видов боевых искусств. Тренеры говорили: у этой миниатюрной девчушки – стальной стержень внутри.-Автор рипа: lrn
Автор записи: Taz
Сэмпл: sendfile-Тип релиза: HDTVRip-AVC
Контейнер: MKV
Видео: 1024x576 (16:9), 25,000 fps, H264, ~1500 kbps avg, ~0.102 bit/pixel
Аудио: 48 kHz, AC3 Dolby Digital, 2/0 (L,R) ch, ~192.00 kbps avg-

MediaInfo

GeneralUnique ID : 196031476944518062993767000525828980718 (0x937A4A05AB112C5CA2276B229836FFEE)Complete name : E:\uTorrent.Temp\Temp\Vera.Glagoleva.Menya.Obizhat.ne.Sovetuyu.2016.HDTVRip-AVC.x264-lrn.mkvFormat : MatroskaFormat version : Version 4 / Version 2File size : 545 MiBDuration : 45mn 0sOverall bit rate : 1 693 KbpsMovie name : Vera.Glagoleva.Menya.Obizhat.ne.Sovetuyu.2016.HDTVRip-AVC.x264-lrnEncoded date : UTC 2010-02-22 21:41:31Writing application : mkvmerge v5.9.0 ('On The Loose') built on Dec 9 2012 15:37:01Writing library : libebml v1.3.0 + libmatroska v1.4.0
VideoID : 1Format : AVCFormat/Info : Advanced Video CodecFormat profile : High@L4.1Format settings, CABAC : YesFormat settings, ReFrames : 8 framesCodec ID : V_MPEG4/ISO/AVCDuration : 45mn 0sBit rate : 1 500 KbpsWidth : 1 024 pixelsHeight : 576 pixelsDisplay aspect ratio : 16:9Frame rate mode : ConstantFrame rate : 25.000 fpsColor space : YUVChroma subsampling : 4:2:0Bit depth : 8 bitsScan type : ProgressiveBits/(Pixel*Frame) : 0.102Stream size : 473 MiB (87%)Writing library : x264 core 148 r2638 7599210Encoding settings : cabac=1 / ref=8 / deblock=1:-3:-3 / analyse=0x3:0x133 / me=umh / subme=9 / psy=1 / psy_rd=1.00:0.00 / mixed_ref=1 / me_range=32 / chroma_me=1 / trellis=2 / 8x8dct=1 / cqm=0 / deadzone=21,11 / fast_pskip=1 / chroma_qp_offset=-2 / threads=12 / lookahead_threads=2 / sliced_threads=0 / nr=0 / decimate=1 / interlaced=0 / bluray_compat=0 / constrained_intra=0 / bframes=8 / b_pyramid=2 / b_adapt=2 / b_bias=0 / direct=3 / weightb=1 / open_gop=0 / weightp=2 / keyint=250 / keyint_min=25 / scenecut=40 / intra_refresh=0 / rc_lookahead=50 / rc=2pass / mbtree=1 / bitrate=1500 / ratetol=1.0 / qcomp=0.60 / qpmin=0 / qpmax=69 / qpstep=4 / cplxblur=20.0 / qblur=0.5 / vbv_maxrate=62500 / vbv_bufsize=78125 / nal_hrd=none / filler=0 / ip_ratio=1.40 / aq=1:1.00Default : YesForced : NoStatistics Tags Issue : mkvmerge v8.5.2 ('Crosses') 32bit 2016-01-31 11:24:54 / mkvmerge v5.9.0 ('On The Loose') built on Dec 9 2012 15:37:01 2010-02-22 21:41:31FromStats_BitRate : 1499669FromStats_Duration : 00:45:00.560000000FromStats_FrameCount : 67514FromStats_StreamSize : 506243374
AudioID : 2Format : AC-3Format/Info : Audio Coding 3Mode extension : CM (complete main)Format settings, Endianness : BigCodec ID : A_AC3Duration : 45mn 0sBit rate mode : ConstantBit rate : 192 KbpsChannel(s) : 2 channelsChannel positions : Front: L RSampling rate : 48.0 KHzFrame rate : 31.250 fps (1536 spf)Compression mode : LossyStream size : 61.8 MiB (11%)Language : RussianDefault : YesForced : No

x264 log

raw [info]: 1024x576p 1:1 @ 25/1 fps (cfr)x264 [info]: using SAR=1/1x264 [info]: using cpu capabilities: MMX2 SSE2Fast SSSE3 SSE4.2 AVXx264 [info]: profile High, level 4.1x264 [info]: frame I:613 Avg QP:17.34 size: 65811x264 [info]: frame P:17871 Avg QP:20.48 size: 16275x264 [info]: frame B:49030 Avg QP:23.68 size: 3570x264 [info]: consecutive B-frames: 2.9% 3.9% 6.5% 68.0% 7.4% 9.7% 0.7% 0.7% 0.0%x264 [info]: mb I I16..4: 9.0% 75.6% 15.3%x264 [info]: mb P I16..4: 1.9% 7.2% 0.8% P16..4: 46.2% 14.3% 13.3% 0.4% 0.1% skip:15.8%x264 [info]: mb B I16..4: 0.1% 0.5% 0.1% B16..8: 33.8% 5.0% 1.1% direct: 3.8% skip:55.7% L0:39.4% L1:49.7% BI:10.9%x264 [info]: 8x8 transform intra:73.4% inter:70.7%x264 [info]: direct mvs spatial:96.8% temporal:3.2%x264 [info]: coded y,uvDC,uvAC intra: 69.9% 76.8% 37.8% inter: 14.3% 20.3% 0.9%x264 [info]: i16 v,h,dc,p: 33% 17% 7% 43%x264 [info]: i8 v,h,dc,ddl,ddr,vr,hd,vl,hu: 14% 11% 6% 8% 11% 14% 12% 12% 12%x264 [info]: i4 v,h,dc,ddl,ddr,vr,hd,vl,hu: 15% 11% 4% 8% 13% 14% 12% 11% 12%x264 [info]: i8c dc,h,v,p: 34% 24% 22% 20%x264 [info]: Weighted P-Frames: Y:4.8% UV:2.5%x264 [info]: ref P L0: 54.9% 12.3% 15.6% 4.9% 4.1% 3.1% 3.0% 1.8% 0.2% 0.0%x264 [info]: ref B L0: 84.3% 8.6% 3.3% 1.5% 1.1% 0.8% 0.4%x264 [info]: ref B L1: 96.1% 3.9%x264 [info]: kb/s:1499.67encoded 67514 frames, 28.82 fps, 1499.67 kb/s

Скриншоты

-
[teatrix.ru].t14801.torrent 
Торрент: Зарегистрирован [ 2016-02-09 12:50 ] · 18DBFEB8DEC8AFF6E0A7E3770D88BCBEE01C0BD2

Скачать .torrent

Скачать

11 KB

Статус: проверено
Скачан: 0 раз
Размер: 545 MB
terms.php



Быстрый ответ

Имя:

      
Для отправки сообщений необходимо включить JavaScript
Показать сообщения:    

Текущее время: 04-Дек 02:57

Часовой пояс: UTC + 3


Вы можете начинать темы
Вы можете отвечать на сообщения
Вы не можете редактировать свои сообщения
Вы не можете удалять свои сообщения
Вы не можете голосовать в опросах
Вы не можете прикреплять файлы к сообщениям
Вы можете скачивать файлы