Одержимые горами / Montagnes en tete / Berge im Kopf (Маттиас Аффолтер / Matthias Affolter) [2014, документальный, альпинизм, DVB] Original (Fre) + Sub (Rus, Eng, Fre, Deu)


Статистика раздачи [Обновить пиров]
Размер:  2.03 GB   |    Зарегистрирован:  9 месяцев 24 дня   |    Скачан:  0 раз

Полного источника не было: Никогда

Личеров:  3  [  0 KB/s  ]   Подробная статистика пиров
 
   
 
 
 

[Цитировать]

Одержимые горами
Montagne en Tête- Дата/Год выпуска: 2014
Страна: Швейцария
Жанр: документальный, альпинизм
Продолжительность: 01:33:31
Перевод: Субтитры
Доп. инфо о переводе: русский перевод И.Рыбкиной, Éclair Media
Русские субтитры: естьФормат субтитров: prerendered (IDX+SUB), softsub (SRT)
Доп. информация о субтитрах: русские, немецкие, нидерландские, румынские - (IDX+SUB); английские, французские - (SRT)
Оригинальная аудиодорожка: французский
Режиссер: Маттиас Аффолтер / Matthias Affolter
Телеканал: TV5MONDE Europe
Описание: Фильм о четырех представителях профессии горных гидов.
"Навязчивая идея, мечта, желание знать… Вот что движет мой. Я рвусь вперед, сражаюсь. Я решил сделать это и не успокоюсь, пока не осуществлю свою мечту. Позади остался мой мир. Комфорт, роскошь, людская глупость. Впереди нас – скалы, лед, вода, грозы, голод, жажда, холод, усталость, напряжение, моральный упадок, подъем, надежда, риск и еще скалы и лед. А может – и вершина". (из предисловия к фильму)
Доп. информация: Hot Bird (13.0°E) TV5MONDE Europe DVB-S
Награда: приз зрительских симпатий Trento Film Festival 2014.

качество: DVB
формат: MKV
Видео: MPEG Video 2, 720x576 (16:9), 25 fps, ~2854 kbps avg, 0.275 bit/pixel
Аудио: MPEG Audio 2, 2 ch, 48 kHz, 192 kbps - французский

Информация по редактированию

Topfield SRP-2410 – запись спутниковой трансляции DVB-S (.rec)ProjectX 0.91.0.10 - разбор контейнера, удаление рекламы и доп. информацииBD Sup2Sub 5.1.2 – конвертация DVB-субтитров (IFO+SUP) -> (IDX+SUB)MKVToolNix GUI 8.8.0 – сборка в контейнер MKVMkvTagger – редактирование тегов

MediaInfo

ОбщееУникальный идентификатор : 249771119569566702486851781790636993725 (0xBBE82AF7B519B3FAA85B1B0231A86CBD)Полное имя : F:\My Torrents 3\[apreder]Montagnes_en_tete(2014)DVB.mkvФормат : MatroskaВерсия формата : Version 2Размер файла : 2,03 ГбайтПродолжительность : 1 ч. 33 м.Режим общего битрейта : ПеременныйОбщий поток : 3108 Кбит/секНазвание фильма : Montagnes en teteДата выпуска : 2014-01-25Дата кодирования : UTC 2016-01-30 13:34:52Программа кодирования : mkvmerge v8.8.0 ('Wind at my back') 64bitБиблиотека кодирования : libebml v1.3.3 + libmatroska v1.4.4Обложка : YesAttachments : cover.jpg / cover_small.jpgDIRECTOR : Matthias AffolterGENRE : DocumentaryIMDB : tt3393174KEYWORDS : LAW_RATING : 12+
ВидеоИдентификатор : 1Формат : MPEG VideoВерсия формата : Version 2Профиль формата : Main@MainПараметр BVOP формата : ДаПараметр матрицы формата : ВыборочнаяПараметр GOP формата : M=4, N=12Format_Settings_PictureStructure : FrameИдентификатор кодека : V_MPEG2Идентификатор кодека/Информация : MPEG 1 or 2 VideoПродолжительность : 1 ч. 33 м.Вид битрейта : ПеременныйБитрейт : 2854 Кбит/секШирина : 720 пикселейВысота : 576 пикселейСоотношение сторон : 16:9Режим частоты кадров : ПостоянныйЧастота кадров : 25,000 кадров/секСтандарт вещания : PALЦветовое пространство : YUVСубдискретизация насыщенности : 4:2:0Битовая глубина : 8 битТип развёртки : ЧересстрочнаяПорядок развёртки : Верхнее поле первоеМетод сжатия : С потерямиБит/(Пиксели*Кадры) : 0.275Временной код первого кадра : 00:00:00:00Оригинал временного кода : Group of pictures headerРазмер потока : 1,86 Гбайт (92%)Default : ДаForced : Нет
АудиоИдентификатор : 2Формат : MPEG AudioВерсия формата : Version 1Профиль формата : Layer 2Идентификатор кодека : A_MPEG/L2Идентификатор кодека/Подсказка : MP2Продолжительность : 1 ч. 33 м.Вид битрейта : ПостоянныйБитрейт : 192 Кбит/секКаналы : 2 каналаЧастота : 48,0 КГцМетод сжатия : С потерямиРазмер потока : 128 Мбайт (6%)Язык : FrenchDefault : ДаForced : Нет
Текст #1Идентификатор : 3Формат : VobSubИдентификатор кодека : S_VOBSUBИдентификатор кодека/Информация : Picture based subtitle format used on DVDsЯзык : RussianDefault : НетForced : Нет
Текст #2Идентификатор : 4Формат : UTF-8Идентификатор кодека : S_TEXT/UTF8Идентификатор кодека/Информация : UTF-8 Plain TextЯзык : EnglishDefault : НетForced : Нет
Текст #3Идентификатор : 5Формат : UTF-8Идентификатор кодека : S_TEXT/UTF8Идентификатор кодека/Информация : UTF-8 Plain TextЯзык : FrenchDefault : НетForced : Нет
Текст #4Идентификатор : 6Формат : VobSubИдентификатор кодека : S_VOBSUBИдентификатор кодека/Информация : Picture based subtitle format used on DVDsЯзык : GermanDefault : НетForced : Нет
Текст #5Идентификатор : 7Формат : VobSubИдентификатор кодека : S_VOBSUBИдентификатор кодека/Информация : Picture based subtitle format used on DVDsЯзык : DutchDefault : НетForced : Нет
Текст #6Идентификатор : 8Формат : VobSubИдентификатор кодека : S_VOBSUBИдентификатор кодека/Информация : Picture based subtitle format used on DVDsЯзык : RomanianDefault : НетForced : Нет

Скриншоты


Резервные скриншоты


[teatrix.ru].t14802.torrent 
Торрент: Зарегистрирован [ 2016-02-09 12:50 ] · 8E279AC2CFA9DE0736A46CF61F7062615A9D3AF8

Скачать .torrent

Скачать

11 KB

Статус: проверено
Скачан: 0 раз
Размер: 2.03 GB
terms.php



Быстрый ответ

Имя:

      
Для отправки сообщений необходимо включить JavaScript
Показать сообщения:    

Текущее время: 05-Дек 05:27

Часовой пояс: UTC + 3


Вы можете начинать темы
Вы можете отвечать на сообщения
Вы не можете редактировать свои сообщения
Вы не можете удалять свои сообщения
Вы не можете голосовать в опросах
Вы не можете прикреплять файлы к сообщениям
Вы можете скачивать файлы