Аверьяновы. Династия летчиков-испытателей (Мария Смелкова) [2011, документальный, TVRip]


Статистика раздачи [Обновить пиров]
Размер:  317 MB   |    Зарегистрирован:  10 месяцев 1 день   |    Скачан:  0 раз

Полного источника не было: Никогда

Личеров:  3  [  0 KB/s  ]   Подробная статистика пиров
 
   
 
 
 

[Цитировать]

Аверьяновы. Династия летчиков-испытателей
Дата/Год выпуска: 2011
Страна: Россия
Жанр: документальный
Продолжительность: 00:27:02
Перевод: Не требуется
Режиссер: Мария Смелкова
Описание: Многие века человек мечтал научится летать как птица. Столетия проб и экспериментов воплотили эту мечту в реальность. Природа научила человека летать. Теперь люди учат летать самолеты, а знания и накопленный опыт передают своим детям. Несмотря на то, что профессия летчика-испытателя сравнительно молода, как и сама авиация, в этом ремесле есть свои традиции и законы. В фильме телеканала RTG TV рассказ о династии авиаторов Аверьяновых. Вячеслав и Евгений - летчики-испытатели, которые первыми поднимают новые самолеты в небо.
Сэмпл: http://sendfile.su/1199030
качество: TVRip
формат: AVI
Видео: XviD, 1500 Кбит/сек, 720 x 544 (1.324), 25.000 fps
Аудио: МР3, 128 Кбит/сек, 2 канала, 48,0 КГц

MediaInfo

ОбщееПолное имя : T:\Мои раздачи\Аверьяновы. Династия летчиков-испытателей (2011)\Аверьяновы. Династия летчиков-испытателей (2011).aviФормат : AVIФормат/Информация : Audio Video InterleaveРазмер файла : 317 МбайтПродолжительность : 27 м.Общий поток : 1638 Кбит/секПрограмма кодирования : VirtualDubMod 1.5.10.2 (build 2540/release)Библиотека кодирования : VirtualDubMod build 2540/release
ВидеоИдентификатор : 0Формат : MPEG-4 VisualПрофиль формата : Advanced Simple@L5Параметр BVOP формата : 2Параметр QPel формата : ДаПараметр GMC формата : 3 точки переходаПараметр матрицы формата : Default (H.263)Идентификатор кодека : XVIDИдентификатор кодека/Подсказка : XviDПродолжительность : 27 м.Битрейт : 1500 Кбит/секШирина : 720 пикселейВысота : 544 пикселяСоотношение сторон : 4:3Частота кадров : 25,000 кадров/секЦветовое пространство : YUVСубдискретизация насыщенности : 4:2:0Битовая глубина : 8 битТип развёртки : ПрогрессивнаяМетод сжатия : С потерямиБит/(Пиксели*Кадры) : 0.153Размер потока : 290 Мбайт (92%)Библиотека кодирования : XviD 1.2.1 (UTC 2008-12-04)
АудиоИдентификатор : 1Формат : MPEG AudioВерсия формата : Version 1Профиль формата : Layer 3Идентификатор кодека : 55Идентификатор кодека/Подсказка : MP3Продолжительность : 27 м.Вид битрейта : ПостоянныйБитрейт : 128 Кбит/секКаналы : 2 каналаЧастота : 48,0 КГцМетод сжатия : С потерямиРазмер потока : 24,7 Мбайт (8%)Выравнивание : Соединение по промежуткамПродолжительность промежутка : 40 мс. (1,00 видеокадр)Время предзагрузки промежутка : 504 мс.Библиотека кодирования : LAME3.98rНастройки программы : -m s -V 4 -q 2 -lowpass 17 -b 128

Скриншоты

[teatrix.ru].t14803.torrent 
Торрент: Зарегистрирован [ 2016-02-09 12:50 ] · F527B7ABBD68E66B56A495E82D4048CFA374284E

Скачать .torrent

Скачать

13 KB

Статус: проверено
Скачан: 0 раз
Размер: 317 MB
terms.php



Быстрый ответ

Имя:

      
Для отправки сообщений необходимо включить JavaScript
Показать сообщения:    

Текущее время: 11-Дек 05:20

Часовой пояс: UTC + 3


Вы можете начинать темы
Вы можете отвечать на сообщения
Вы не можете редактировать свои сообщения
Вы не можете удалять свои сообщения
Вы не можете голосовать в опросах
Вы не можете прикреплять файлы к сообщениям
Вы можете скачивать файлы