Наша версия: Под грифом "секретно" - Тонька-пулемётчица [2004, VHSRip]


Статистика раздачи [Обновить пиров]
Размер:  536 MB   |    Зарегистрирован:  10 месяцев   |    Скачан:  0 раз

Полного источника не было: Никогда

Личеров:  3  [  0 KB/s  ]   Подробная статистика пиров
 
   
 
 
 

[Цитировать]

Наша версия: Под грифом "секретно" - Тонька-пулемётчица
Дата/Год выпуска: 2004
Страна: Россия
Жанр: Документальный, история
Продолжительность: 00:44:46
Оригинальная аудиодорожка: русский
Телеканал: ТВЦ
Описание: Документальный фильм из цикла передач Наша версия: Под грифом "секретно " - об Антонине Макаровне Гинзбург, известной как "Тонька-пулемётчица".
Доп. информация: Реклама не вырезана.
качество: VHSRip
формат: AVI
Видео: MPEG-4, 640x480, 4:3, 1 535 Kbps, 25.000 fps
Аудио: MPEG Audio 3, 128 Kbps, 44.1 KHz, 2 channels

Скриншоты


Отчёт MediaInfo

General
Complete name : C:\Users\Петр\Desktop\Наша версия. Под грифом секретно. Тонька-пулемётчица.avi
Format : AVI
Format/Info : Audio Video Interleave
File size : 536 MiB
Duration : 44mn 45s
Overall bit rate : 1 675 Kbps
Writing application : MEncoder SVN-r33883(20110719-gcc4.5.2)
Writing library : MPlayer
Video
ID : 0
Format : MPEG-4 Visual
Format profile : Advanced Simple@L5
Format settings, BVOP : 2
Format settings, QPel : No
Format settings, GMC : No warppoints
Format settings, Matrix : Default (H.263)
Codec ID : XVID
Codec ID/Hint : XviD
Duration : 44mn 45s
Bit rate : 1 535 Kbps
Width : 640 pixels
Height : 480 pixels
Display aspect ratio : 4:3
Frame rate : 25.000 fps
Color space : YUV
Chroma subsampling : 4:2:0
Bit depth : 8 bits
Scan type : Progressive
Compression mode : Lossy
Bits/(Pixel*Frame) : 0.200
Stream size : 492 MiB (92%)
Writing library : XviD 1.2.1 (UTC 2008-12-04)
Audio
ID : 1
Format : MPEG Audio
Format version : Version 1
Format profile : Layer 3
Mode : Joint stereo
Codec ID : 55
Codec ID/Hint : MP3
Duration : 44mn 45s
Bit rate mode : Constant
Bit rate : 128 Kbps
Channel(s) : 2 channels
Sampling rate : 44.1 KHz
Compression mode : Lossy
Delay relative to video : 40ms
Stream size : 41.0 MiB (8%)
Alignment : Aligned on interleaves
Interleave, duration : 26 ms (0.65 video frame)
Interleave, preload duration : 522 ms
[teatrix.ru].t14804.torrent 
Торрент: Зарегистрирован [ 2016-02-09 12:50 ] · DF9461EF9488AC57C3CDFF9C68197F5538F59F80

Скачать .torrent

Скачать

11 KB

Статус: проверено
Скачан: 0 раз
Размер: 536 MB
terms.php



Быстрый ответ

Имя:

      
Для отправки сообщений необходимо включить JavaScript
Показать сообщения:    

Текущее время: 10-Дек 10:00

Часовой пояс: UTC + 3


Вы можете начинать темы
Вы можете отвечать на сообщения
Вы не можете редактировать свои сообщения
Вы не можете удалять свои сообщения
Вы не можете голосовать в опросах
Вы не можете прикреплять файлы к сообщениям
Вы можете скачивать файлы