[TR24][SM][OF] Malcolm Arnold - Four Scottish Dances, Symphony No. 3 - Malcolm Arnold, London Philharmonic Orchestra - 1959 (Classical)


Статистика раздачи [Обновить пиров]
Размер:  1.49 GB   |    Зарегистрирован:  9 месяцев 27 дней   |    Скачан:  0 раз
Сидов:  1  [  0 KB/s  ]   Личеров:  3  [  0 KB/s  ]   Подробная статистика пиров
 
   
 
 
 

[Цитировать]

·
·
Malcolm Arnold
(1921―2006)
Жанр: Symphony, Orchestral
Носитель: Official Digital Download
Год издания диска: Ⓟ 1959 Everest Records
Год переиздания диска: © 2013 Countdown Media GmbH
Номер по каталогу: SDBR-3021
Продолжительность: 44:26
Наличие сканов в содержимом раздачи: artwork
Контейнер: FLAC (*.flac)
Разрядность: 24/192
Количество каналов: 2.0
Формат: tracks
Источник: HDtracks
Pелизер: WEB (thanks to the original customer)
Malcolm Arnold
London Philharmonic Orchestra

Треклист

Four Scottish Dances Op. 59 (1957)
01 I. Pesante 02:29
02 II. Vivace 02:04
03 III. Allegretto 03:47
04 IV. Con brio 01:15
Symphony No. 3 Op. 63 (1954-1957)
05 I. Allegro - Vivace 13:30
06 II. Lento 13:48
07 III. Allegro con brio - Presto 07:33

Dynamic Range Meter

foobar2000 1.2.6 / Dynamic Range Meter 1.1.1log date: 2015-09-27 12:12:01
--------------------------------------------------------------------------------Analyzed: London Philharmonic Orchestra, Malcolm Arnold / Arnold: 4 Scottish Dances & Symphony No. 3--------------------------------------------------------------------------------
DR Peak RMS Duration Track--------------------------------------------------------------------------------DR11 -1.41 dB -14.64 dB 2:29 01-Four Scottish Dances, Op. 59: I. PesanteDR13 -3.37 dB -22.29 dB 2:04 02-Four Scottish Dances, Op. 59: II. VivaceDR13 -6.73 dB -25.97 dB 3:47 03-Four Scottish Dances, Op. 59: III. AllegrettoDR10 -0.50 dB -13.85 dB 1:15 04-Four Scottish Dances, Op. 59: IV. Con brioDR12 -0.74 dB -17.76 dB 13:30 05-Symphony No. 3, Op. 63: I. Allegro - VivaceDR12 -0.50 dB -18.87 dB 13:48 06-Symphony No. 3, Op. 63: II. LentoDR11 -0.59 dB -17.11 dB 7:33 07-Symphony No. 3, Op. 63: III. Allegro con brio - Presto--------------------------------------------------------------------------------
Number of tracks: 7Official DR value: DR12
Samplerate: 192000 HzChannels: 2Bits per sample: 24Bitrate: 4777 kbpsCodec: FLAC================================================================================
[teatrix.ru].t14805.torrent 
Торрент: Зарегистрирован [ 2016-02-09 12:50 ] · 8E7D73B30FB9ABAA5A955A553BC9212743E0D3D3

Скачать .torrent

Скачать

16 KB

Статус: проверено
Скачан: 0 раз
Размер: 1.49 GB
terms.php



Быстрый ответ

Имя:

      
Для отправки сообщений необходимо включить JavaScript
Показать сообщения:    

Текущее время: 08-Дек 03:15

Часовой пояс: UTC + 3


Вы можете начинать темы
Вы можете отвечать на сообщения
Вы не можете редактировать свои сообщения
Вы не можете удалять свои сообщения
Вы не можете голосовать в опросах
Вы не можете прикреплять файлы к сообщениям
Вы можете скачивать файлы