[TR24][SM][OF] Edward Elgar - Cello Concerto & Sea Pictures - Jacqueline Du Pre, Janet Baker, John Barbirolli, London Symphony Orchestra - 1965 {2011 Remaster} (Classical)


Статистика раздачи [Обновить пиров]
Размер:  1.08 GB   |    Зарегистрирован:  9 месяцев 22 дня   |    Скачан:  0 раз
Сидов:  1  [  0 KB/s  ]   Личеров:  3  [  0 KB/s  ]   Подробная статистика пиров
 
   
 
 
 

[Цитировать]

·
·
·

Edward Elgar
(1857 – 1934)
Жанр: Classical
Носитель: Official Digital Download
Год издания диска: Ⓟ 1965, 2011 EMI Records Ltd.
Год переиздания диска: © 2012 EMI Records Ltd.
Номер по каталогу: ASD 655
Продолжительность: 53:52
Наличие сканов в содержимом раздачи: cover art
Контейнер: FLAC (*.flac)
Разрядность: 24/96
Количество каналов: 2.0
Формат: tracks
Источник: HDtracks
Pелизер: WEB (thanks to the original customer)

Треклист

Cello Concerto in E Minor Op.85 *
01 I. Adagio - Moderato 7:59
02 II. Lento - Allegro molto 4:33
03 III. Adagio 5:13
04 IV. Allegro - Moderato - Allegro ma non troppo - Poco più lento - Adagio 12:21
Sea Pictures Op.37
05 I. Sea Slumber-Song 5:05
06 II. In Haven (Capri) 2:06
07 III. Sabbath Morning at Sea 6:19
08 IV. Where Corals Lie 4:11
09 V. The Swimmer 6:05

Исполнители

Jacqueline Du Pré cello *
Dame Janet Baker mezzo-soprano
Sir John Barbirolli & London Symphony Orchestra

Dynamic Range Meter

foobar2000 1.2.6 / Dynamic Range Meter 1.1.1log date: 2016-02-07 12:01:34
--------------------------------------------------------------------------------Analyzed: Jacqueline Du Pre, London Symphony Orchestra, Sir John Barbirolli / Elgar: Cello Concerto in E Minor; Sea Pictures (1-4) Janet Baker, London Symphony Orchestra, Sir John Barbirolli / Elgar: Cello Concerto in E Minor; Sea Pictures (5-9)--------------------------------------------------------------------------------
DR Peak RMS Duration Track--------------------------------------------------------------------------------DR13 -0.86 dB -21.04 dB 7:59 01-Cello Concerto in E Minor, Op.85 - I. Adagio - ModeratoDR15 -0.97 dB -21.87 dB 4:33 02-Cello Concerto in E Minor, Op.85 - II. Lento - Allegro moltoDR14 -5.58 dB -25.37 dB 5:13 03-Cello Concerto in E Minor, Op.85 - III. AdagioDR13 -0.01 dB -19.81 dB 12:21 04-Cello Concerto in E Minor, Op.85 - IV. Allegro - Moderato - Allegro ma non troppo - Poco più lento - AdagioDR14 -3.19 dB -24.16 dB 5:05 05-Sea Pictures, Op.37 - I. Sea Slumber-SongDR11 -6.93 dB -24.11 dB 2:06 06-Sea Pictures, Op.37 - II. In Haven (Capri)DR11 -1.06 dB -17.90 dB 6:19 07-Sea Pictures, Op.37 - III. Sabbath Morning at SeaDR11 -2.79 dB -20.05 dB 4:11 08-Sea Pictures, Op.37 - IV. Where Corals LieDR11 -0.01 dB -16.13 dB 6:05 09-Sea Pictures, Op.37 - V. The Swimmer--------------------------------------------------------------------------------
Number of tracks: 9Official DR value: DR13
Samplerate: 96000 HzChannels: 2Bits per sample: 24Bitrate: 2944 kbpsCodec: FLAC================================================================================
[teatrix.ru].t14806.torrent 
Торрент: Зарегистрирован [ 2016-02-09 12:50 ] · CFB03285D95ECD7A5177F4D813A35F9ED44ACD3A

Скачать .torrent

Скачать

12 KB

Статус: проверено
Скачан: 0 раз
Размер: 1.08 GB
terms.php



Быстрый ответ

Имя:

      
Для отправки сообщений необходимо включить JavaScript
Показать сообщения:    

Текущее время: 03-Дек 12:35

Часовой пояс: UTC + 3


Вы можете начинать темы
Вы можете отвечать на сообщения
Вы не можете редактировать свои сообщения
Вы не можете удалять свои сообщения
Вы не можете голосовать в опросах
Вы не можете прикреплять файлы к сообщениям
Вы можете скачивать файлы