[TR24][OF] Dmitri Shostakovich / Дмитрий Шостакович - Piano Concertos: op. 35, op. 102, op. 94 (Anna Vinnitskaya, Omer Meir Wellber, Kremerata Baltica, Winds Of Staatskapelle Dresden) - 2015 (Concert for Piano and Orchestra/Chamber, Classical)


Статистика раздачи [Обновить пиров]
Размер:  451 MB   |    Зарегистрирован:  9 месяцев 22 дня   |    Скачан:  0 раз

Полного источника не было: Никогда

Личеров:  3  [  0 KB/s  ]   Подробная статистика пиров
 
   
 
 
 

[Цитировать]

Dmitri Shostakovich - Piano Concertos
Формат записи/Источник записи: [TR24][OF]
Наличие водяных знаков: Нет
Год издания/переиздания диска: 2015
Жанр: Concert for Piano and Orchestra, Classical
Издатель(лейбл): Alpha Classics
Продолжительность: 49:51
Исполнитель:
Anna Vinnitskaya, piano,
Kremerata Baltica,
Winds Of Staatskapelle Dresden,
Omer Meir Wellber, Conductor (in Concerto Op.102),
Tobias Willner - Solo Trumpet (in Concerto Op.35),
Ivan Rudin - Piano (in Concertino & Tarantella).
Recorded in September 2014, at Hochschule fur musik Carl Maria von Veber, Dresden.
Контейнер: FLAC (*.flac)
Тип рипа: tracks
Разрядность: 24/48
Количество каналов: 2.0
Источник: qobuz

DR-Report

foobar2000 1.3.6 / Замер динамического диапазона (DR) 1.1.1Дата отчёта: 2016-02-05 04:00:35
--------------------------------------------------------------------------------Анализ: Anna Vinnitskaya, Kremerata Baltica, Omer Meir Wellber, Winds of Staatskapelle Dresden, Ivan Rudin / Shostakovich: Piano Concertos--------------------------------------------------------------------------------
DR Пики RMS Продолжительность трека--------------------------------------------------------------------------------DR14 -2.18 дБ -21.99 дБ 6:02 01-Piano Concerto No. 1 in C Minor, Op. 35 - I. AllegrettoDR16 -3.80 дБ -26.67 дБ 7:40 02-Piano Concerto No. 1 in C Minor, Op. 35 - II. LentoDR11 -11.28 дБ -26.43 дБ 1:27 03-Piano Concerto No. 1 in C Minor, Op. 35 - III. ModeratoDR14 -0.10 дБ -20.34 дБ 6:29 04-Piano Concerto No. 1 in C Minor, Op. 35 - IV. Allegro con brioDR14 -0.80 дБ -19.58 дБ 6:49 05-Piano Concerto No. 2 in F Major, Op. 102 - I. AllegroDR13 -13.34 дБ -31.65 дБ 5:38 06-Piano Concerto No. 2 in F Major, Op. 102 - II. AndanteDR14 -0.70 дБ -20.49 дБ 5:30 07-Piano Concerto No. 2 in F Major, Op. 102 - III. AllegroDR15 -0.10 дБ -22.50 дБ 8:54 08-Concertino for Two Pianos in A Minor, Op. 94DR13 -1.63 дБ -21.58 дБ 1:21 09-Tarantella for Two Pianos--------------------------------------------------------------------------------
Количество треков: 9Реальные значения DR: DR14
Частота: 48000 ГцКаналов: 2Разрядность: 24Битрейт: 1228 кбит/сКодек: FLAC================================================================================

Треклист

Concerto for piano, trumpet and strings, op.35:
1. I. Allegretto 6'01
2. II. Lento 7'39
3. III. Moderato 1'26
4. IV. Allegretto Con brio 6'29
Concerto for piano and orchestra, op.102:
5. I. Allegro 6'49
6. II. Andante 5’38
7. III. Allegro 5'29
8. Concertino for two pianos, op.94 8'53
9. Tarantella for two pianos 1'21
[teatrix.ru].t14807.torrent 
Торрент: Зарегистрирован [ 2016-02-09 12:50 ] · BD60DF3E3660CA364DF151931D9E86FAF6F8FF13

Скачать .torrent

Скачать

19 KB

Статус: проверено
Скачан: 0 раз
Размер: 451 MB
terms.php



Быстрый ответ

Имя:

      
Для отправки сообщений необходимо включить JavaScript
Показать сообщения:    

Текущее время: 03-Дек 01:21

Часовой пояс: UTC + 3


Вы можете начинать темы
Вы можете отвечать на сообщения
Вы не можете редактировать свои сообщения
Вы не можете удалять свои сообщения
Вы не можете голосовать в опросах
Вы не можете прикреплять файлы к сообщениям
Вы можете скачивать файлы