[SACD-R][OF] (André) Andre Cluytens, Orchestre de la Societe des Concerts du Concervatoire - Georges Bizet: L\'Arlesienne Suites Nos. 1 & 2, Carmen Suite - 1965/2011 (Orchestral)

DL-List and Torrent activity [Update пиров]
Size:  1.84 GB   |    Registered:  8 months 17 days   |    Completed:  0 times

Seeder not seen: Never

Leechers:  3  [  0 KB/s  ]   Show peers in full details


(Andre) André Cluytens, Orchestre de la Société des Concerts du Concervatoire
Georges Bizet: L'Arlésienne Suites Nos. 1 & 2, Carmen Suite
- Формат записи/Источник записи: [SACD-R][OF]
Наличие водяных знаков: Нет
Год издания/переиздания диска: 1965/2011
Жанр: Orchestral
Издатель(лейбл): EMI / Esoteric
Продолжительность: 00:45:37
Наличие сканов в содержимом раздачи: Да-Треклист:
Georges Bizet
L’Arlésienne - Suite No.1
1. Prelude
2. Minuetto
3. Adagietto
4. Carillon
L’Arlésienne - Suite No.2
5. Pastorale
6. Intermezzo
7. Minuetto
8. Farandole
Carmen - Suite
9. Prelude to the Act.I
10. Entr’acte to the Act. II
11. Entr’acte to the Act. III
12. Entr’acte to the Act. IV-Orchestre de la Société des Concerts du Concervatoire
Conducted. by André Cluytens-Контейнер: ISO (*.iso)
Тип рипа: image
Разрядность: 64(2,8 MHz/1 Bit)
Формат: DSD
Количество каналов: 2.0
Доп. информация: ID: ESSE-90050
Recorded: 13-15 January 1964
Producer: Motoaki Ohmachi (ESOTERIC COMPANY)
Mastering Engineer: Kazuie Sugimoto (JVC Mastering Center)
Источник (релизер): PS³SACD`s Forum

Об альбоме (сборнике)

EMI Classics masterpiece collection
The reissue of classical music masterpieces by ESOTERIC has attracted a lot of attention, both for its uncompromising commitment to recreating the original master sound, and for using hybrid Super Audio CD (SACD) technology to improve sound quality. This series marks the first hybrid SACD release of two selections from EMI classics that have been mainstays of the catalog since their initial release on LP, until the present digital age of CD. These new audio versions feature DSD mastering of the original recordings.
ESOTERIC equipment used for re-mastering
The criterion of re-mastering is to faithfully capture the quality of the original master tapes. ESOTERIC’s flag ship D/A converters, model D-01VU, Rubidium master clock generator model G-0Rb and ESOTERIC MEXCEL interconnect cables and power cords, were all used for this re-mastering session. This combination of highly advanced technology greatly contributed to capturing the high quality sound of the original master tapes.
Experience by yourself…
Experience the legendary performance in this new Super Audio CD/CD format. Not only for new followers, but also for well experienced followers of these recorded materials. All will be equally impressed by the “soul” hidden within the notes, but never before found in previously released recordings in any format.

DR 12

foobar2000 1.3.8 / Замер динамического диапазона (DR) 1.1.1
Дата отчёта: 2016-02-02 10:24:04
Анализ: Andre Cluytens / Orchestre De La Societe Des Concerts Du Conservatoire / BIZET: L'ARLESIENNE SUITE NO.1 & 2, CARMEN SUITE
DR Пики RMS Продолжительность трека
DR13 -5.51 дБ -24.13 дБ 7:14 01-L'Arlesienne, Suite d'orchestre no,1 : Prelude (Remasterise en 2001)
DR13 -8.35 дБ -27.76 дБ 2:53 02-L'Arlesienne, Suite d'orchestre no,1 : Minuetto (Remasterise en 2001)
DR12 -16.93 дБ -34.84 дБ 3:14 03-L'Arlesienne, Suite d'orchestre no,1 : Adagietto (Remasterise en 2001)
DR12 -6.73 дБ -23.92 дБ 4:35 04-L'Arlesienne, Suite d'orchestre no,1 : Carillon (Remasterise en 2001)
DR11 -7.14 дБ -24.07 дБ 6:06 05-L'Arlesienne, Suite d'orchestre no,2 : Pastorale (Remasterise en 2001)
DR10 -6.03 дБ -22.73 дБ 4:55 06-L'Arlesienne, Suite d'orchestre no,2 : Intermezzo (Remasterise en 2001)
DR13 -9.78 дБ -29.80 дБ 4:23 07-L'Arlesienne, Suite d'orchestre no,2 : Menuet (Remasterise en 2001)
DR11 -4.36 дБ -19.65 дБ 3:30 08-L'Arlesienne, Suite d'orchestre no,2 : Farandole (Remasterise en 2001)
DR12 -4.59 дБ -20.21 дБ 2:20 09-Carmen, Suite d'orchestre : Prelude (Remasterise en 2001)
DR14 -17.19 дБ -36.92 дБ 1:47 10-Carmen, Suite d'orchestre : Entracte (acte II) (Remasterise en 2001)
DR12 -14.80 дБ -32.93 дБ 2:23 11-Carmen, Suite d'orchestre : Entracte (acte III) (Remasterise en 2001)
DR12 -5.17 дБ -23.83 дБ 2:17 12-Carmen, Suite d'orchestre : Entracte (acte IV) (Remasterise en 2001)
Количество треков: 12
Реальные значения DR: DR12
Частота: 2822400 Гц / Частота PCM: 88200 Гц
Каналов: 2
Разрядность: 24
Битрейт: 5645 кбит/с
Кодек: DSD64
Torrent: Registered [ 2016-02-09 12:50 ] · 73BCD268CA1B28644BEE9DD3766DD4F0F72C8460

Download .torrent


20 KB

Status: checked
Completed: 0 times
Size: 1.84 GB

Quick Reply


Heads necessary to send messages to enable JavaScript
Display posts:    

Current time is: 27-Oct 08:02

All times are UTC + 3

You can post new topics in this forum
You can reply to topics in this forum
You cannot edit your posts in this forum
You cannot delete your posts in this forum
You cannot vote in polls in this forum
You cannot attach files in this forum
You can download files in this forum