[SACD-R][OF] Lorin Maazel, Wiener Philharmoniker - Jean Sibelius: Symphony No.1 in E Minor, Op.39; Karelia Suite, Op.11 - 1963/2009 (Orchestral)

DL-List and Torrent activity [Update пиров]
Size:  2.02 GB   |    Registered:  8 months 18 days   |    Completed:  0 times

Seeder not seen: Never

Leechers:  3  [  0 KB/s  ]   Show peers in full details


Lorin Maazel, Wiener Philharmoniker
Jean Sibelius: Symphony No.1 in E Minor, Op.39
Karelia Suite, Op.11
- Формат записи/Источник записи: [SACD-R][OF]
Наличие водяных знаков: Нет
Год издания/переиздания диска: 1964/2009
Жанр: Orchestral
Издатель(лейбл): Decca / Esoteric
Продолжительность: 00:50:19
Наличие сканов в содержимом раздачи: Нет-Треклист:
Jean Sibelius (1865-1957)
Symphony No.1 in E Minor, Op.39
1 I. Andante – Allegro energico
2 II. Andante
3 III. Scherzo (Allegro)
4 IV. Finale (Quasi una fantasia)
Karelia Suite, Op.11
5 I. Intermezzo (Moderato)
6 II. Ballade
7 III. Alla Marcia-Wiener Philharmoniker
Conducted by Lorin Maazel-Контейнер: ISO (*.iso)
Тип рипа: image
Разрядность: 64(2,8 MHz/1 Bit)
Формат: DSD
Количество каналов: 2.0
Доп. информация: ESSD-90020
Producer: John Culshaw
Engineer: Gordon Parry
Location: Sofiensaal, Vienna
Recording September 1963 (Symphony), March 1963 (Suite)
Producer: Motoaki Ohmachi (ESOTERIC COMPANY)
Mastering Engineer: Kazuie Sugimoto (JVC Mastering Center)-Источник (релизер): PS³SACD`s Forum

Об альбоме (сборнике)

Decca masterpiece collection vol.2
The reissue of this Decca masterpiece series by ESOTERIC has attracted a lot of attention, both for its uncompromising commitment to recreating the original master sound, and for using hybrid Super Audio CD (SACD) technology to improve sound quality. This series marks the first hybrid SACD release of two selections that have been mainstays of the catalog since their initial release on LP, until the present digital age of CD. These new audio versions were created from Decca's original analog master tapes, converted to 96kHz / 24 bit PCM and finally to DSD master.

The stunning brilliance of the razor-sharp Maazel in his early 30s

Though he recently stepped down from his post as Music Director of the New York Philharmonic, Lorin Maazel (born March 6, 1930) is still actively working as a conductor. This album contains Sibelius’s Symphony No. 1 and the “Karelia” suite, both which Maazel recorded in 1963 with the Vienna Philharmonic Orchestra when he was only 33 years old. This recording is widely regarded as a masterpiece, for it perfectly captures Maazel’s acute sensitivity and aggressive sense of musical interpretation. Likewise, this is the first recording of Maazel and the Vienna Philharmonic Orchestra performing together, and provides a glimpse of recordings the young Maazel did for Decca, the first being with the Israel Philharmonic Orchestra in 1962. From the standpoint of the Vienna Philharmonic Orchestra, this record marks the beginning of the only Sibelius symphonic library (recorded in 1961 – 1968) that Decca has made to date. In addition to Decca, Maazel had already begun recording for Deutsche Grammophon and EMI at the time this performance was recorded. This period signifies the start of his illustrious career, in which he made his debut in 1960 as the youngest conductor to ever perform at the Bayreuther Festspiele. Maazel would later record these works again in 1992, this time with the Pittsburgh Symphony Orchestra (Sony).

Super Audio CD hybridization achieves the ultimate sound

This recording session was performed in Vienna at the Sofiensaal, the concert hall where Decca was originally based. The collaboration of producer John Culshaw and recording engineer Gordon Parry lively captures the characteristic sound of the Vienna Philharmonic Orchestra. As with Dvorák’s “From the New World” conducted by Kertesz, this hybrid SACD vividly depicts the manner in which the youthfully ardent conductor pours his energy into this long-established orchestra and essentially resurrects it. The freshness of the young Maazel is perfectly conveyed by the strong drumming of the timpanis in the “scherzo” 3rd movement, and by the deliberate progression of the climax in the 2nd movement. Along with the Tchaikovsky symphonic library that was recorded during the same period, this recording recreates the dashing conducting style of Maazel in the 1960s.

“One of Maazel’s masterpieces in his youth”

“The Sibelius symphonic library, which a young Maazel recorded in the 1960s with the renowned Vienna Philharmonic Orchestra, is one of the finest among his many records. In this performance of Symphony No. 1, he works to create music with a fervent passion powered by a relentless drive. So strong is this drive it generates a sharp friction between him and the orchestra, but the friction itself seems to be extremely musical and sufficiently thrilling. There are moments when the sound seems a little close to the microphone, but the commendable quality of this recording still rings true today.”
(Tsuguhiko Yoshii, from “The Record Geijutsu Special Issue: Classical Music Record Book Vol.1 - Symphony”, 1985)

DR 13

foobar2000 1.3.8 / Замер динамического диапазона (DR) 1.1.1
Дата отчёта: 2016-01-30 20:07:23
Анализ: Lorin Maazel, Wiener Philharmoniker / Jean Sibelius: Symphony No. 1; Karelia Suite
DR Пики RMS Продолжительность трека
DR13 -1.93 дБ -20.79 дБ 10:45 01-Symphony No. 1 in E minor, op. 39: 1. Andante ma non troppo - Allegro energico
DR14 -2.06 дБ -20.89 дБ 8:36 02-Symphony No. 1 in E minor, op. 39: 2. Andante (ma non troppo lento)
DR14 -3.43 дБ -23.01 дБ 4:56 03-Symphony No. 1 in E minor, op. 39: 3. Scherzo (Allegro ma non troppo)
DR14 -1.64 дБ -20.16 дБ 11:47 04-Symphony No. 1 in E minor, op. 39: 4. Finale (quasi una Fantasia)
DR13 -2.01 дБ -21.56 дБ 3:37 05-Karelia Suite, op. 11: No. 1 Intermezzo
DR13 -7.48 дБ -26.32 дБ 6:30 06-Karelia Suite, op. 11: No. 2 Ballade
DR12 -2.99 дБ -19.73 дБ 4:08 07-Karelia Suite, op. 11: No. 3 Alla marcia
Количество треков: 7
Реальные значения DR: DR13
Частота: 2822400 Гц / Частота PCM: 88200 Гц
Каналов: 2
Разрядность: 24
Битрейт: 5645 кбит/с
Кодек: DSD64
Torrent: Registered [ 2016-02-09 12:50 ] · 59996E4D1A3F028BB7FE1B7250C598AD4E9E4DF6

Download .torrent


11 KB

Status: checked
Completed: 0 times
Size: 2.02 GB

Quick Reply


Heads necessary to send messages to enable JavaScript
Display posts:    

Current time is: 27-Oct 23:40

All times are UTC + 3

You can post new topics in this forum
You can reply to topics in this forum
You cannot edit your posts in this forum
You cannot delete your posts in this forum
You cannot vote in polls in this forum
You cannot attach files in this forum
You can download files in this forum