Bryan Watson and Karen Hardy - Back To Basics [2002 г., Latin, VHSRip, ENG]


Статистика раздачи [Обновить пиров]
Размер:  5.18 GB   |    Зарегистрирован:  9 месяцев 24 дня   |    Скачан:  0 раз

Полного источника не было: Никогда

Личеров:  4  [  0 KB/s  ]   Подробная статистика пиров
 
   
 
 
 

[Цитировать]

Bryan Watson and Karen Hardy - Back To Basics
Год выпуска: 2002
Страна: Japan (Studio Himawari)
Жанр: Latin
Продолжительность: ~5 Hours
Язык: Английский
Описание: Rumba, Cha Cha Cha, Samba, Jive

Содержание

Rumba
- Technique
- Rumba Walks
- Movement
- Control of Body Weight
- Changing Direction
- Hip Action
- Drive & Acceleration
- Exercise
- Characterization
- Musical Interpretations
- Development & Problems Discussed
- Conpetitive Demonstration
Chacha
- Technique
- Body Position
- 9 ChaChaCha Chasses
- Movement
- Moving Body Weight
- Body Speed & Leg Speed
- Rotation
- Exercise
- Speed
- Characteristics
- Tempo
- Musical Interpretations
- Development & Problems Discussed
- Competitive Demonstration
Samba
- Basic Routines
- Figure Names
- Technique
- Poise
- 8 rhythms
- Whisk, Volta, Bota Fogo
- Samba Bounce
- Footwork
- Movement
- Body Weight Position
- Usage of the Standing Leg
- Samba Movements
- Characteristics
- Interpretations of Samba
- Body Language
- Development & Problems Discussed
- Competitive Demonstration
Jive
- Basic Routines
- Figure Names
- Technique
- Jive Chasse
- Footwork
- Three differences from Cha-Cha-Cha Chasse
- Movement
- Position of Body Weight
- Swing
- Timing
- Knee Action
- Connection with your partner
- Shaping
- Characteristics
- Combination of Swing & Rock’n Roll
- Music & Characterstics
- Developments & Problems Discussed
- Competitive Demonstration
Качество: VHSRip
Формат: AVI
Видео кодек: MPEG4
Аудио кодек: MPEG Audio
Видео: 320x240, 4:3, 1274 Kbps, 15.000 fps
Аудио: 224 Kbps, 2 channels, 48.0 KHz

Отчет MediaInfo

General
Complete name : G:\Back to basic\Bryan Watson and Karen Hardy - Back to basics - Jive-P1.avi
Format : AVI
Format/Info : Audio Video Interleave
File size : 156 MiB
Duration : 14mn 31s
Overall bit rate : 1 501 Kbps
Video
ID : 0
Format : MPEG-4 Visual
Format profile : Advanced Simple@L5
Format settings, BVOP : Yes
Format settings, QPel : No
Format settings, GMC : No warppoints
Format settings, Matrix : Default (H.263)
Muxing mode : Packed bitstream
Codec ID : XVID
Codec ID/Hint : XviD
Duration : 14mn 31s
Bit rate : 1 274 Kbps
Width : 320 pixels
Height : 240 pixels
Display aspect ratio : 4:3
Frame rate : 15.000 fps
Original frame rate : 25.000 fps
Color space : YUV
Chroma subsampling : 4:2:0
Bit depth : 8 bits
Scan type : Progressive
Bits/(Pixel*Frame) : 1.106
Stream size : 132 MiB (85%)
Writing library : XviD 1.1.0 (UTC 2005-11-22)
Audio
ID : 1
Format : MPEG Audio
Format version : Version 1
Format profile : Layer 3
Codec ID : 55
Codec ID/Hint : MP3
Duration : 14mn 31s
Bit rate mode : Constant
Bit rate : 224 Kbps
Channel(s) : 2 channels
Sampling rate : 48.0 KHz
Stream size : 23.3 MiB (15%)
Alignment : Split accross interleaves
Interleave, duration : 500 ms (7.50 video frames)
Interleave, preload duration : 750 ms

Скриншоты


Скринлисты

[teatrix.ru].t14825.torrent 
Торрент: Зарегистрирован [ 2016-02-09 12:50 ] · E1E34978F131AB7201D22A7098C2F9D6421224DA

Скачать .torrent

Скачать

27 KB

Статус: проверено
Скачан: 0 раз
Размер: 5.18 GB
terms.php



Быстрый ответ

Имя:

      
Для отправки сообщений необходимо включить JavaScript
Показать сообщения:    

Текущее время: 05-Дек 01:23

Часовой пояс: UTC + 3


Вы можете начинать темы
Вы можете отвечать на сообщения
Вы не можете редактировать свои сообщения
Вы не можете удалять свои сообщения
Вы не можете голосовать в опросах
Вы не можете прикреплять файлы к сообщениям
Вы можете скачивать файлы