Сергей Прокофьев - Ромео и Джульетта (The Royal Ballet - Carlos Acosta, Tamara Rojo) (Дирижёр: Борис Грузин) [2007, Ballet, Blu-Ray]


 

[Цитировать]

Сергей Прокофьев - Ромео и Джульетта (The Royal Ballet - Carlos Acosta, Tamara Rojo) (Дирижёр: Борис Грузин)
Жанр: Ballet
Продолжительность: 2:18:05
Год выпуска: 2007
Описание:
Режиссер: Моника Мэйсон (Monica Mason) Росс Макгиббон (Ross MacGibbon)
В ролях:
Карлос Акоста (Carlos Acosta)
Тамара Рохо (Tamara Rojo)
Жозе Мартин (Jose Martin)
Тиаго Соарес (Thiago Soares)
Йохеи Сасаки (Yohei Sasaki)
Дэвид Пикеринг (David Pickering)
Кристофер Сондерс (Christpher Saunders)
Элизабет МакГориан (Elizabeth McGorian)
Гари Эвис (Gary Avis)
Кристина Эристис (Christina Arestis)
Сандра Конли (Sandra Conley)
Алистер Мэрриотт (Alastair Marriott)
Royal Ballet
Royal Ballet Sinfonia, leader: Роберт Гиббс (Robert Gibbs)
Дирижёр: Борис Грузин (Boris Gruzin)
Описание: Очередная звёздная постановка, выпущенная Decca. Суперзвезда балета Карлос Акоста (Carlos Acosta) танцует несчастного влюблённого классической трагедии Шекспира в красиво поставленной постановке Лондонского Королевского балета в хореографии классика Кеннета МакМилана (Kenneth MacMillan). В этой классической трагедии Карлос Акоста выступает вместе со своей постоянной партнёршей - Тамарой Рохо (Tamara Rojo), знаменитой испанской балериной, составляя вместе восхитительную пару. Драма обреченных любовников поставлена в восхитительных декорациях и костюмах Николаса Георгиадиса (Nicholas Georgiadis).
Постановка снята ВВС и составила их основную рождественскую программу в 2007 году.
Качество: Blu-Ray
Видео кодек: AVC MPEG-4
Аудио кодек: DTS-HD MA 5.1, LPCM 2.0
Видео: 1080i / AVC MPEG-4 / 1 920 x 1 080 / 24995 Kbps / 29,970 fps
Аудио #1: 5.1 / 48 kHz / 4263 kbps / 24-bit (DTS Core: 5.1 / 48 kHz / 1509 kbps / 24-bit)
Аудио #2: 2.0 / 48 kHz / 2304 kbps / 24-bit
BDInfo
Disc Title:     Romeo & Juliet (2007)
Disc Size: 35 580 114 968 bytes
Protection: AACS
BD-Java: No
BDInfo: 0.5.6
Notes:
BDINFO HOME:
Cinema Squid
http://www.cinemasquid.com/blu-ray/tools/bdinfo
INCLUDES FORUMS REPORT FOR:
AVS Forum Blu-ray Audio and Video Specifications Thread
http://www.avsforum.com/avs-vb/showthread.php?t=1155731
********************
PLAYLIST: 00003.MPLS
********************

Mediainfo

<--- BEGIN FORUMS PASTE --->
Total   Video
Title                                                           Codec   Length  Movie Size      Disc Size       Bitrate Bitrate Main Audio Track                          Secondary Audio Track
-----                                                           ------  ------- --------------  --------------  ------- ------- ------------------                        ---------------------
00003.MPLS                                                      AVC     2:18:05 34 494 830 592  35 580 114 968  33,30   25,00   DTS-HD Master 5.1 4263Kbps (48kHz/24-bit) LPCM 2.0 2304Kbps (48kHz/24-bit)
DISC INFO:
[br]
Disc Title:     Romeo & Juliet (2007)
Disc Size:      35 580 114 968 bytes
Protection:     AACS
BD-Java:        No
BDInfo:         0.5.6
[br]
PLAYLIST REPORT:
[br]
Name:                   00003.MPLS
Length:                 2:18:05 (h:m:s)
Size:                   34 494 830 592 bytes
Total Bitrate:          33,30 Mbps
[br]
VIDEO:
[br]
Codec                   Bitrate             Description
-----                   -------             -----------
MPEG-4 AVC Video        24995 kbps          1080i / 29,970 fps / 16:9 / High Profile 4.1
[br]
AUDIO:
[br]
Codec                           Language        Bitrate         Description
-----                           --------        -------         -----------
DTS-HD Master Audio             Miscellaneous languages4263 kbps       5.1 / 48 kHz / 4263 kbps / 24-bit (DTS Core: 5.1 / 48 kHz / 1509 kbps / 24-bit)
LPCM Audio                      Miscellaneous languages2304 kbps       2.0 / 48 kHz / 2304 kbps / 24-bit
[br]
FILES:
[br]
Name            Time In         Length          Size            Total Bitrate
----            -------         ------          ----            -------------
00007.M2TS      0:00:00.000     1:34:22.356     23 584 063 488  33 320
00008.M2TS      1:34:22.356     0:43:43.454     10 910 767 104  33 271
[br]
CHAPTERS:
[br]
Number          Time In         Length          Avg Video Rate  Max 1-Sec Rate  Max 1-Sec Time  Max 5-Sec Rate  Max 5-Sec Time  Max 10Sec Rate  Max 10Sec Time  Avg Frame Size  Max Frame Size  Max Frame Time
------          -------         ------          --------------  --------------  --------------  --------------  --------------  --------------  --------------  --------------  --------------  --------------
1               0:00:00.000     0:01:54.147     15 909 kbps     24 450 kbps     00:00:31.631    22 469 kbps     00:00:31.531    21 616 kbps     00:00:31.131    66 334 bytes    235 906 bytes   00:00:18.818
2               0:01:54.147     0:03:00.513     20 952 kbps     28 445 kbps     00:03:33.479    27 337 kbps     00:03:33.279    26 831 kbps     00:03:28.074    87 387 bytes    389 508 bytes   00:04:36.943
3               0:04:54.661     0:01:12.172     22 592 kbps     30 096 kbps     00:05:35.034    27 822 kbps     00:05:32.165    26 630 kbps     00:05:29.162    94 227 bytes    313 116 bytes   00:05:52.318
4               0:06:06.833     0:02:15.435     30 200 kbps     34 052 kbps     00:08:20.366    32 667 kbps     00:07:07.560    32 445 kbps     00:07:05.825    125 959 bytes   360 551 bytes   00:07:34.921
5               0:08:22.268     0:02:05.125     29 919 kbps     34 211 kbps     00:08:25.605    32 698 kbps     00:09:44.016    32 103 kbps     00:09:39.045    124 786 bytes   337 730 bytes   00:10:11.310
6               0:10:27.393     0:01:06.766     29 698 kbps     34 446 kbps     00:10:37.937    32 701 kbps     00:10:38.571    32 281 kbps     00:10:34.433    123 867 bytes   346 221 bytes   00:10:43.476
7               0:11:34.160     0:02:33.286     28 231 kbps     34 366 kbps     00:12:25.711    32 720 kbps     00:12:23.375    32 054 kbps     00:11:46.505    117 746 bytes   337 364 bytes   00:13:41.720
8               0:14:07.446     0:02:57.877     23 908 kbps     34 721 kbps     00:14:59.398    32 072 kbps     00:14:55.995    28 388 kbps     00:14:14.753    99 717 bytes    345 288 bytes   00:16:39.398
9               0:17:05.324     0:01:16.843     20 849 kbps     23 380 kbps     00:17:49.968    22 524 kbps     00:18:13.559    22 343 kbps     00:18:07.319    86 958 bytes    280 952 bytes   00:17:49.001
10              0:18:22.167     0:03:32.111     23 075 kbps     31 344 kbps     00:18:31.910    30 118 kbps     00:18:31.376    28 487 kbps     00:18:30.876    96 241 bytes    334 230 bytes   00:19:53.158
11              0:21:54.279     0:03:21.401     24 077 kbps     34 310 kbps     00:24:38.443    31 872 kbps     00:24:35.640    30 654 kbps     00:23:35.981    100 421 bytes   359 505 bytes   00:23:41.720
12              0:25:15.680     0:02:43.830     20 442 kbps     29 004 kbps     00:27:40.725    26 041 kbps     00:27:37.522    24 990 kbps     00:26:35.126    85 262 bytes    277 748 bytes   00:27:31.082
13              0:27:59.511     0:03:09.822     31 119 kbps     34 839 kbps     00:31:01.292    32 866 kbps     00:29:20.692    32 606 kbps     00:30:57.121    129 792 bytes   362 529 bytes   00:28:31.443
14              0:31:09.334     0:03:25.205     29 651 kbps     34 858 kbps     00:33:57.168    32 622 kbps     00:33:46.958    32 434 kbps     00:33:40.651    123 670 bytes   339 877 bytes   00:34:33.638
15              0:34:34.539     0:02:40.159     31 794 kbps     35 264 kbps     00:35:26.190    32 748 kbps     00:35:36.167    32 509 kbps     00:36:57.548    132 608 bytes   371 733 bytes   00:37:07.158
16              0:37:14.699     0:02:22.408     26 664 kbps     34 457 kbps     00:39:27.898    32 717 kbps     00:39:23.994    32 516 kbps     00:39:25.363    111 209 bytes   364 830 bytes   00:37:27.478
17              0:39:37.108     0:02:34.053     27 188 kbps     34 445 kbps     00:39:39.543    32 723 kbps     00:40:36.834    32 521 kbps     00:40:43.441    113 396 bytes   357 422 bytes   00:40:47.678
18              0:42:11.161     0:03:22.702     19 917 kbps     33 093 kbps     00:43:52.997    30 274 kbps     00:42:55.072    26 213 kbps     00:43:52.096    83 072 bytes    293 668 bytes   00:42:55.105
19              0:45:33.864     0:01:41.935     26 399 kbps     33 468 kbps     00:47:04.488    32 498 kbps     00:47:09.593    30 764 kbps     00:46:56.180    110 105 bytes   315 590 bytes   00:47:09.626
20              0:47:15.799     0:03:40.887     20 449 kbps     34 182 kbps     00:48:01.445    32 649 kbps     00:47:45.128    32 518 kbps     00:47:53.470    85 289 bytes    309 839 bytes   00:47:48.398
21              0:50:56.686     0:09:37.543     16 902 kbps     26 563 kbps     00:53:46.556    23 997 kbps     00:53:46.356    22 682 kbps     00:53:45.722    70 496 bytes    263 536 bytes   00:53:30.707
22              1:00:34.230     0:03:23.169     28 439 kbps     34 134 kbps     01:03:10.686    32 635 kbps     01:01:34.223    32 276 kbps     01:01:18.441    118 616 bytes   313 583 bytes   01:01:57.780
23              1:03:57.400     0:02:03.790     26 715 kbps     34 026 kbps     01:04:56.893    32 593 kbps     01:04:56.893    32 357 kbps     01:04:56.225    111 422 bytes   317 257 bytes   01:05:01.864
24              1:06:01.190     0:04:09.048     28 700 kbps     34 056 kbps     01:08:11.754    32 613 kbps     01:08:17.827    32 360 kbps     01:08:16.826    119 705 bytes   333 355 bytes   01:08:20.062
25              1:10:10.239     0:02:36.823     27 758 kbps     33 500 kbps     01:11:09.765    32 389 kbps     01:12:21.103    32 060 kbps     01:12:18.000    115 774 bytes   320 508 bytes   01:11:14.770
26              1:12:47.062     0:02:47.000     27 664 kbps     34 174 kbps     01:13:21.029    32 548 kbps     01:12:58.507    31 802 kbps     01:12:58.307    115 381 bytes   340 911 bytes   01:15:14.743
27              1:15:34.062     0:04:23.930     18 521 kbps     29 002 kbps     01:19:41.610    26 892 kbps     01:19:39.274    25 785 kbps     01:19:38.340    77 249 bytes    284 821 bytes   01:18:38.980
28              1:19:57.993     0:03:08.454     29 682 kbps     34 496 kbps     01:22:13.795    32 681 kbps     01:23:00.108    32 496 kbps     01:20:56.017    123 799 bytes   349 215 bytes   01:20:21.583
29              1:23:06.448     0:01:48.608     30 075 kbps     34 946 kbps     01:24:37.639    32 718 kbps     01:24:33.868    32 457 kbps     01:24:37.639    125 436 bytes   360 961 bytes   01:23:22.163
30              1:24:55.056     0:04:28.801     29 760 kbps     34 696 kbps     01:25:45.940    32 864 kbps     01:26:15.336    32 591 kbps     01:25:36.664    124 123 bytes   394 265 bytes   01:27:12.460
31              1:29:23.858     0:02:22.242     28 990 kbps     34 047 kbps     01:30:53.247    32 585 kbps     01:29:35.403    31 434 kbps     01:30:04.866    120 911 bytes   346 020 bytes   01:31:30.451
32              1:31:46.100     0:02:36.256     26 058 kbps     34 500 kbps     01:32:47.862    32 788 kbps     01:33:06.547    32 399 kbps     01:32:00.781    108 685 bytes   390 477 bytes   01:34:15.649
33              1:34:22.356     0:02:34.420     24 870 kbps     33 180 kbps     01:34:23.758    32 280 kbps     01:34:23.758    30 026 kbps     01:36:21.642    103 729 bytes   315 032 bytes   01:35:08.669
34              1:36:56.777     0:05:09.275     24 964 kbps     33 686 kbps     01:37:36.884    31 252 kbps     01:40:25.486    30 683 kbps     01:40:25.085    104 121 bytes   307 738 bytes   01:40:27.488
35              1:42:06.053     0:03:58.871     23 567 kbps     33 841 kbps     01:45:52.079    32 156 kbps     01:45:48.041    29 749 kbps     01:44:58.525    98 292 bytes    312 675 bytes   01:44:32.966
36              1:46:04.925     0:02:46.165     18 258 kbps     32 413 kbps     01:46:12.999    24 823 kbps     01:46:11.698    23 845 kbps     01:47:42.889    76 153 bytes    305 100 bytes   01:46:12.032
37              1:48:51.091     0:03:44.624     25 586 kbps     33 893 kbps     01:50:48.408    32 576 kbps     01:52:23.937    31 953 kbps     01:52:23.436    106 717 bytes   311 794 bytes   01:52:33.446
38              1:52:35.715     0:03:20.466     29 628 kbps     34 254 kbps     01:55:48.207    32 579 kbps     01:54:16.516    32 475 kbps     01:55:17.243    123 573 bytes   342 981 bytes   01:55:39.532
39              1:55:56.182     0:03:43.690     26 196 kbps     33 954 kbps     01:55:57.817    32 569 kbps     01:59:28.528    32 340 kbps     01:59:25.491    109 259 bytes   348 208 bytes   01:59:29.929
40              1:59:39.872     0:02:22.609     29 494 kbps     34 098 kbps     02:00:13.406    32 610 kbps     02:00:09.402    32 182 kbps     02:00:06.566    123 015 bytes   339 563 bytes   02:00:13.606
41              2:02:02.481     0:01:56.382     30 151 kbps     34 546 kbps     02:02:30.342    32 758 kbps     02:02:31.243    32 547 kbps     02:03:08.080    125 754 bytes   338 915 bytes   02:02:26.472
42              2:03:58.864     0:07:02.255     21 729 kbps     33 441 kbps     02:08:57.930    31 776 kbps     02:04:20.686    31 694 kbps     02:04:20.686    90 628 bytes    366 666 bytes   02:04:22.888
43              2:11:01.119     0:05:44.444     25 384 kbps     34 293 kbps     02:15:33.525    32 763 kbps     02:15:27.853    32 447 kbps     02:13:39.211    105 872 bytes   370 375 bytes   02:15:34.326
44              2:16:45.564     0:01:20.246     26 848 kbps     33 610 kbps     02:17:27.005    31 772 kbps     02:17:45.790    31 655 kbps     02:17:40.619    112 025 bytes   331 231 bytes   02:17:41.620
[br]
STREAM DIAGNOSTICS:
[br]
File            PID             Type            Codec           Language                Seconds                 Bitrate                 Bytes           Packets
----            ---             ----            -----           --------                --------------          --------------          -------------   -----
00007.M2TS      4113 (0x1011)   0x1B            AVC                                     5662,257                24 998                  17 693 153 817  96 257 347
00007.M2TS      4352 (0x1100)   0x80            LPCM            mis (Miscellaneous languages)5662,257                2 310                   1 635 289 568   9 059 776
00007.M2TS      4353 (0x1101)   0x86            DTS-HD MA       mis (Miscellaneous languages)5662,257                4 275                   3 025 751 364   17 326 821
00008.M2TS      4113 (0x1011)   0x1B            AVC                                     2623,321                24 991                  8 194 905 989   44 583 295
00008.M2TS      4352 (0x1100)   0x80            LPCM            mis (Miscellaneous languages)2623,321                2 311                   757 653 804     4 197 528
00008.M2TS      4353 (0x1101)   0x86            DTS-HD MA       mis (Miscellaneous languages)2623,321                4 237                   1 389 244 840   7 958 179
<---- END FORUMS PASTE ---->
QUICK SUMMARY:
Disc Title: Romeo & Juliet (2007)
Disc Size: 35 580 114 968 bytes
Protection: AACS
BD-Java: No
Playlist: 00003.MPLS
Size: 34 494 830 592 bytes
Length: 2:18:05
Total Bitrate: 33,30 Mbps
Video: MPEG-4 AVC Video / 24995 kbps / 1080i / 29,970 fps / 16:9 / High Profile 4.1
Audio: Miscellaneous languages / DTS-HD Master Audio / 5.1 / 48 kHz / 4263 kbps / 24-bit (DTS Core: 5.1 / 48 kHz / 1509 kbps / 24-bit)
Audio: Miscellaneous languages / LPCM Audio / 2.0 / 48 kHz / 2304 kbps / 24-bit
********************
PLAYLIST: 00000.MPLS
********************
<--- BEGIN FORUMS PASTE --->
Total   Video
Title                                                           Codec   Length  Movie Size      Disc Size       Bitrate Bitrate Main Audio Track                          Secondary Audio Track
-----                                                           ------  ------- --------------  --------------  ------- ------- ------------------                        ---------------------
00000.MPLS                                                      AVC     0:00:36 121 442 304     35 580 114 968  26,40   20,68   DTS-HD Master 5.1 2904Kbps (48kHz/24-bit) LPCM 2.0 2304Kbps (48kHz/24-bit)
DISC INFO:
[br]
Disc Title:     Romeo & Juliet (2007)
Disc Size:      35 580 114 968 bytes
Protection:     AACS
BD-Java:        No
BDInfo:         0.5.6
[br]
PLAYLIST REPORT:
[br]
Name:                   00000.MPLS
Length:                 0:00:36 (h:m:s)
Size:                   121 442 304 bytes
Total Bitrate:          26,40 Mbps
[br]
VIDEO:
[br]
Codec                   Bitrate             Description
-----                   -------             -----------
MPEG-4 AVC Video        20681 kbps          1080i / 29,970 fps / 16:9 / High Profile 4.1
[br]
AUDIO:
[br]
Codec                           Language        Bitrate         Description
-----                           --------        -------         -----------
DTS-HD Master Audio             Miscellaneous languages2904 kbps       5.1 / 48 kHz / 2904 kbps / 24-bit (DTS Core: 5.1 / 48 kHz / 1509 kbps / 24-bit)
LPCM Audio                      Miscellaneous languages2304 kbps       2.0 / 48 kHz / 2304 kbps / 24-bit
[br]
FILES:
[br]
Name            Time In         Length          Size            Total Bitrate
----            -------         ------          ----            -------------
00000.M2TS      0:00:00.000     0:00:12.512     23 543 808      15 053
00001.M2TS      0:00:12.512     0:00:23.289     97 867 776      33 617
00002.M2TS      0:00:35.802     0:00:01.000     30 720          246
[br]
CHAPTERS:
[br]
Number          Time In         Length          Avg Video Rate  Max 1-Sec Rate  Max 1-Sec Time  Max 5-Sec Rate  Max 5-Sec Time  Max 10Sec Rate  Max 10Sec Time  Avg Frame Size  Max Frame Size  Max Frame Time
------          -------         ------          --------------  --------------  --------------  --------------  --------------  --------------  --------------  --------------  --------------  --------------
1               0:00:00.000     0:00:35.802     21 256 kbps     29 763 kbps     00:00:22.188    28 204 kbps     00:00:19.586    27 568 kbps     00:00:16.349    88 574 bytes    347 568 bytes   00:00:24.524
2               0:00:35.802     0:00:01.000     111 kbps        0 kbps          00:00:00.000    0 kbps          00:00:00.000    0 kbps          00:00:00.000    478 bytes       2 435 bytes     00:00:36.403
[br]
STREAM DIAGNOSTICS:
[br]
File            PID             Type            Codec           Language                Seconds                 Bitrate                 Bytes           Packets
----            ---             ----            -----           --------                --------------          --------------          -------------   -----
00000.M2TS      4113 (0x1011)   0x1B            AVC                                     12,379                  14 507                  22 447 353      122 204
00001.M2TS      4113 (0x1011)   0x1B            AVC                                     23,156                  25 109                  72 679 016      395 421
00001.M2TS      4352 (0x1100)   0x80            LPCM            mis (Miscellaneous languages)23,156                  2 324                   6 726 152       37 264
00001.M2TS      4353 (0x1101)   0x86            DTS-HD MA       mis (Miscellaneous languages)23,156                  4 615                   13 359 112      76 232
00002.M2TS      4113 (0x1011)   0x1B            AVC                                     0,901                   145                     16 291          112
<---- END FORUMS PASTE ---->

QUICK SUMMARY:
Disc Title: Romeo & Juliet (2007)
Disc Size: 35 580 114 968 bytes
Protection: AACS
BD-Java: No
Playlist: 00000.MPLS
Size: 121 442 304 bytes
Length: 0:00:36
Total Bitrate: 26,40 Mbps
Video: MPEG-4 AVC Video / 20681 kbps / 1080i / 29,970 fps / 16:9 / High Profile 4.1
Audio: Miscellaneous languages / DTS-HD Master Audio / 5.1 / 48 kHz / 2904 kbps / 24-bit (DTS Core: 5.1 / 48 kHz / 1509 kbps / 24-bit)
Audio: Miscellaneous languages / LPCM Audio / 2.0 / 48 kHz / 2304 kbps / 24-bit



Показать сообщения:    

Текущее время: 10-Дек 17:47

Часовой пояс: UTC + 3


Вы не можете начинать темы
Вы не можете отвечать на сообщения
Вы не можете редактировать свои сообщения
Вы не можете удалять свои сообщения
Вы не можете голосовать в опросах
Вы не можете прикреплять файлы к сообщениям
Вы не можете скачивать файлы