Дмитрий Шостакович-Концерт (Кеннет МакМиллан) / Dmitry Shostakovich-Concerto (Kenneth Macmillan) (Marianela Nuñez, Yuhui Choe & Steven McRae, Dominic Grier) [2010, Балет, DVDRip]


 

[Цитировать]

Концерт / Concerto
Год выпуска: 2010
Страна-производитель: Великобритания
Жанр: Балет
Продолжительность: 00:28:05
Музыка: Дмитрий Шостакович / Dmitry Shostakovich
Исполнители музыки: The Orchestra of the Royal Opera House
Режиссер/Хореограф: Кеннет МакМиллан / Kenneth Macmillan
Исполнители: Marianela Nuñez, Yuhui Choe & Steven McRae, Dominic Grier
Описание: Одноактный балет одного из самых почитаемых хореографов Британии Кеннета МакМиллана представленный зрителям в Royal Opera House Covent Garden в марте 2010 года.
Доп. информация: В качестве музыкального сопровождения хореограф выбрал Концерт для фортепиано № 2 фа мажор, который был написан Дмитрием Шостаковичем в 1957 году как подарок на день рождения его 19-летнего сына Максима. Кеннет Макмиллан в 1966 году стал директором балетной труппы Städtische Opernhaus в Берлине. Бессюжетный балет, пример элегантного классицизма, стал первой работой хореографа для Берлинской оперы, задуманной для развития технических навыков немецкой компании.
сэмпл: http://multi-up.com/469440
Качество видео: DVDRip
Формат/Контейнер: AVI
Видео кодек: XviD
Аудио кодек: AC3
Видео поток: Xvid 720x416 29.97fps 2225kbps [Video 0]
Аудио поток: Dolby AC3 48000Hz 6ch 448kbps [Audio 1]

MediaInfo

Format : AVI
Format/Info : Audio Video Interleave
File size : 540 MiB
Duration : 28mn 5s
Overall bit rate : 2 685 Kbps
Writing application : VirtualDubModRus 1.5.10.2 (build 2540/release)
Writing library : VirtualDubMod build 2540/release
Video
ID : 0
Format : MPEG-4 Visual
Format profile : Advanced Simple@L5
Format settings, BVOP : No
Format settings, QPel : No
Format settings, GMC : No warppoints
Format settings, Matrix : Custom
Codec ID : XVID
Codec ID/Hint : XviD
Duration : 28mn 5s
Bit rate : 2 226 Kbps
Width : 720 pixels
Height : 416 pixels
Display aspect ratio : 16:9
Frame rate : 29.970 fps
Color space : YUV
Chroma subsampling : 4:2:0
Bit depth : 8 bits
Scan type : Progressive
Bits/(Pixel*Frame) : 0.248
Stream size : 447 MiB (83%)
Writing library : XviD 1.1.2 (UTC 2006-11-01)
Audio
ID : 1
Format : AC-3
Format/Info : Audio Coding 3
Mode extension : CM (complete main)
Codec ID : 2000
Duration : 28mn 5s
Bit rate mode : Constant
Bit rate : 448 Kbps
Channel(s) : 6 channels
Channel positions : Front: L C R, Side: L R, LFE
Sampling rate : 48.0 KHz
Bit depth : 16 bits
Stream size : 90.0 MiB (17%)
Alignment : Split accross interleaves
Interleave, duration : 33 ms (1.00 video frame)
Interleave, preload duration : 500 ms

Скриншоты




Показать сообщения:    

Текущее время: 10-Дек 09:56

Часовой пояс: UTC + 3


Вы не можете начинать темы
Вы не можете отвечать на сообщения
Вы не можете редактировать свои сообщения
Вы не можете удалять свои сообщения
Вы не можете голосовать в опросах
Вы не можете прикреплять файлы к сообщениям
Вы не можете скачивать файлы