Сергей Прокофьев - Золушка (Жан-Кристоф Майо) Владимир Ашкенази / Serge Prokofiev - Cendrillon (Jean-Christophe Maillot) (Aurelia Schaefer, Francesco Nappa, Bernice Coppieters) [2007, Modern ballet, SATRip]


 

[Цитировать]

Золушка / Cendrillon
Год выпуска: 2007
Страна-производитель: Монако
Жанр: Modern ballet
Продолжительность: 01:37:09
Перевод: не требуется
Режиссер/Хореограф: Жан-Кристоф Майо / Jean-Christophe Maillot
Исполнители:
Фея - Bernice Coppieters
Отец - Chis Roelandt
Золушка - Aurélia Schaefer
Принц - Francesco Nappa
Мать - Gioia Masala
Сестры - Agalie Wandamme, Francesca Dolci
Учителя танцев - Gaetan Morlotti, Jérôme Marehand
Композитор: Сергей Прокофьев / Serge Prokofiev
Исполнители музыки: Cleverland Orchestra
Дирижер: Vladimir Ashkenazy
Описание: Вдохновившись музыкой Прокофьева, Жан-Кристоф полностью изменил либретто. В спектакле нет ни хрустальных туфелек, ни карет из тыквы. Вместо этого – яркие костюмы, декорации, похожие на книжку с картинками, современный танец и неизменный хэппи-энд.
Cэмпл: http://multi-up.com/496768
Качество видео: SATRip
Формат/Контейнер: AVI
Видео кодек: XviD
Аудио кодек: MP3
Видео поток: Xvid 720x416 25.00fps 1966kbps [Video 0]
Аудио поток: MPEG Audio Layer 3 48000Hz stereo 256kbps [Audio 1]

MediaInfo

Format : AVI
Format/Info : Audio Video Interleave
File size : 1.51 GiB
Duration : 1h 37mn
Overall bit rate : 2 230 Kbps
Writing application : VirtualDubMod 1.5.4.1 (build 2178/release)
Writing library : VirtualDubMod build 2178/release
Video
ID : 0
Format : MPEG-4 Visual
Format profile : Advanced Simple@L5
Format settings, BVOP : Yes
Format settings, QPel : No
Format settings, GMC : No warppoints
Format settings, Matrix : Custom
Codec ID : XVID
Codec ID/Hint : XviD
Duration : 1h 37mn
Bit rate : 1 967 Kbps
Width : 720 pixels
Height : 416 pixels
Display aspect ratio : 16:9
Frame rate : 25.000 fps
Color space : YUV
Chroma subsampling : 4:2:0
Bit depth : 8 bits
Scan type : Progressive
Bits/(Pixel*Frame) : 0.263
Stream size : 1.33 GiB (88%)
Writing library : XviD 1.1.2 (UTC 2006-11-01)
Audio
ID : 1
Format : MPEG Audio
Format version : Version 1
Format profile : Layer 3
Mode : Joint stereo
Codec ID : 55
Codec ID/Hint : MP3
Duration : 1h 37mn
Bit rate mode : Constant
Bit rate : 256 Kbps
Channel(s) : 2 channels
Sampling rate : 48.0 KHz
Stream size : 178 MiB (11%)
Alignment : Aligned on interleaves
Interleave, duration : 80 ms (2.00 video frames)
Interleave, preload duration : 504 ms

Скриншоты




Показать сообщения:    

Текущее время: 06-Дек 15:14

Часовой пояс: UTC + 3


Вы не можете начинать темы
Вы не можете отвечать на сообщения
Вы не можете редактировать свои сообщения
Вы не можете удалять свои сообщения
Вы не можете голосовать в опросах
Вы не можете прикреплять файлы к сообщениям
Вы не можете скачивать файлы