П.И.Чайковский - Красавица (Спящая красавица) Жан-Кристоф Майо (Валерий Гергиев) / P.I.Tchaikovsky - La Belle (Jean-Christophe Maillot) (Carole Pastorel, Bernice Coppieters, Gaetan Morlott) Claudio Abbado [2002, Modern ballet, SATRip]


 

[Цитировать]

Красавица / La Belle
Год выпуска: 2002
Страна-производитель: Франция, Монако
Жанр: Modern ballet
Продолжительность: 01:24:44
Перевод: не требуется
Субтитры: нет
Режиссер/Хореограф: Жан-Кристоф Майо / Jean-Christophe Maillot
Исполнители:
Bernice Coppieters Beauty
Chris Roelandt - The Prince
Nicolas Kahn - The King
Carole Pastorel - The Queen
Paola Cantalupo - The Lilac Fairy
Gaëtan Morlotti - The Queen Mother / Carabosse
Pascal Molat - The King Father
Композитор: П.И.Чайковский / P.I.Tchaikovsky
Исполнители музыки: Оркестр Мариинского театра, Санкт-Петербург, Берлинский Филармонический оркестр
Дирижеры: Валерий Гергиев, Клаудио Аббадо (Claudio Abbado)
Описание: Эта постановка является значительным и смелым возобновлением известного произведения Петра Ильича Чайковского. Очищая от пыли классическую ткань этого балета, постановщик предлагает интерпретацию, очень близкую к первоначальной сказке Перро, отвергающую смягченную и совершенно приторную версию, которую нам обычно показывают.
Cэмпл: http://multi-up.com/497125
Качество видео: SATRip
Формат/Контейнер: AVI
Видео кодек: XviD
Аудио кодек: MP3
Видео поток: Xvid 720x432 25.00fps 2230kbps [Video 0]
Аудио поток: MPEG Audio Layer 3 48000Hz stereo 192kbps [Audio 1]

MediaInfo

Format : AVI
Format/Info : Audio Video Interleave
File size : 1.44 GiB
Duration : 1h 24mn
Overall bit rate : 2 430 Kbps
Writing application : VirtualDubMod 1.5.4.1 (build 2178/release)
Writing library : VirtualDubMod build 2178/release
Video
ID : 0
Format : MPEG-4 Visual
Format profile : Advanced Simple@L5
Format settings, BVOP : Yes
Format settings, QPel : No
Format settings, GMC : No warppoints
Format settings, Matrix : Custom
Codec ID : XVID
Codec ID/Hint : XviD
Duration : 1h 24mn
Bit rate : 2 230 Kbps
Width : 720 pixels
Height : 432 pixels
Display aspect ratio : 1.667
Frame rate : 25.000 fps
Color space : YUV
Chroma subsampling : 4:2:0
Bit depth : 8 bits
Scan type : Progressive
Bits/(Pixel*Frame) : 0.287
Stream size : 1.32 GiB (92%)
Writing library : XviD 1.2.0.dev47 (UTC 2006-11-01)
Audio
ID : 1
Format : MPEG Audio
Format version : Version 1
Format profile : Layer 3
Mode : Joint stereo
Codec ID : 55
Codec ID/Hint : MP3
Duration : 1h 24mn
Bit rate mode : Constant
Bit rate : 192 Kbps
Channel(s) : 2 channels
Sampling rate : 48.0 KHz
Video delay : 24ms
Stream size : 116 MiB (8%)
Alignment : Aligned on interleaves
Interleave, duration : 80 ms (2.00 video frames)
Interleave, preload duration : 504 ms
Writing library : LAME3.97
Encoding settings : -m j -V 4 -q 2 -lowpass 18.6 -b 192

Скриншоты




Показать сообщения:    

Текущее время: 06-Дек 15:06

Часовой пояс: UTC + 3


Вы не можете начинать темы
Вы не можете отвечать на сообщения
Вы не можете редактировать свои сообщения
Вы не можете удалять свои сообщения
Вы не можете голосовать в опросах
Вы не можете прикреплять файлы к сообщениям
Вы не можете скачивать файлы