Морис Равель - Дафнис и Хлоя (Жан-Кристоф Майо) / Maurice Ravel - Daphnis et Chloe (Jean-Christophe Maillot) Nicolas Brochot (Anjara Ballesteros-Cilla, Jeroen Verbruggen, Bernice Coppieters, Chris Roelandt) [2010, Modern ballet, SATRip]


 

[Цитировать]

Дафнис и Хлоя / Daphnis et Chloe
Год выпуска: 2010
Страна-производитель: Франция, Монако
Жанр: Modern ballet
Продолжительность: 00:32:41
Перевод: не требуется
Субтитры: нет
Режиссер/Хореограф: Жан-Кристоф Майо / Jean-Christophe Maillot
Исполнители:
Chloé - Anjara Ballesteros-Cilla
Daphis - Jeroen Verbruggen
Lycénion - Bernice Coppieters
Dorcon - Chris Roelandt
Композитор: Морис Равель / Maurice Ravel
Исполнители музыки: L'Orchestre Philharmonique de Monte Carlo
Дирижер: Nicolas Brochot
Описание: «Дафнис и Хлоя» (фр. Daphnis et Chloé) — одноактный балет с музыкой Мориса Равеля и сценарием Михаила Фокина по одноимённому роману древнегреческого писателя Лонга о любви пастуха и пастушки.
Доп. информация: запись с канала MEZZO
Сэмпл: http://multi-up.com/497131
Качество видео: SATRip
Формат/Контейнер: AVI
Видео кодек: XviD
Аудио кодек: MP3
Видео поток: Xvid 720x416 25.00fps 1628kbps [Video 0]
Аудио поток: MPEG Audio Layer 3 48000Hz stereo 192kbps [Audio 1]

MediaInfo

Format : AVI
Format/Info : Audio Video Interleave
File size : 427 MiB
Duration : 32mn 41s
Overall bit rate : 1 828 Kbps
Writing application : VirtualDubMod 1.5.4.1 (build 2178/release)
Writing library : VirtualDubMod build 2178/release
Video
ID : 0
Format : MPEG-4 Visual
Format profile : Advanced Simple@L5
Format settings, BVOP : Yes
Format settings, QPel : No
Format settings, GMC : No warppoints
Format settings, Matrix : Custom
Codec ID : XVID
Codec ID/Hint : XviD
Duration : 32mn 41s
Bit rate : 1 629 Kbps
Width : 720 pixels
Height : 416 pixels
Display aspect ratio : 16:9
Frame rate : 25.000 fps
Color space : YUV
Chroma subsampling : 4:2:0
Bit depth : 8 bits
Scan type : Progressive
Bits/(Pixel*Frame) : 0.218
Stream size : 381 MiB (89%)
Writing library : XviD 1.2.0.dev47 (UTC 2006-11-01)
Audio
ID : 1
Format : MPEG Audio
Format version : Version 1
Format profile : Layer 3
Mode : Joint stereo
Mode extension : MS Stereo
Codec ID : 55
Codec ID/Hint : MP3
Duration : 32mn 41s
Bit rate mode : Constant
Bit rate : 192 Kbps
Channel(s) : 2 channels
Sampling rate : 48.0 KHz
Stream size : 44.9 MiB (11%)
Alignment : Aligned on interleaves
Interleave, duration : 80 ms (2.00 video frames)
Interleave, preload duration : 504 ms
Writing library : LAME3.97
Encoding settings : -m j -V 4 -q 2 -lowpass 18.6 -b 192

Скриншоты




Показать сообщения:    

Текущее время: 02-Дек 21:10

Часовой пояс: UTC + 3


Вы не можете начинать темы
Вы не можете отвечать на сообщения
Вы не можете редактировать свои сообщения
Вы не можете удалять свои сообщения
Вы не можете голосовать в опросах
Вы не можете прикреплять файлы к сообщениям
Вы не можете скачивать файлы