Николай Римский-Корсаков - Шехеразада (Жан-Кристоф Майо) / Nikolai Rimski-Korsakov - Sheherazade (Jean-Christophe Maillot) Fritz Reiner (Bernice Coppieters, Ballet de Monte Carlo) [2010, Modern ballet, SATRip]


 

[Цитировать]

Шехеразада / Sheherazade
Год выпуска: 2010
Страна-производитель: Франция, Монако
Жанр: Modern ballet
Продолжительность: 00:35:44
Перевод: не требуется
Субтитры: нет
Режиссер/Хореограф: Жан-Кристоф Майо / Jean-Christophe Maillot
Исполнители: Bernice Coppieters, Ballet de Monte Carlo
Композитор: Николай Римский-Корсаков / Nikolaï Rimski-Korsakov
Исполнители музыки: Orchestre Symphonique de Chicago запись 1960 г.
Дирижер: Fritz Reiner
Описание: «Шехеразада» - наследие Русского балета, спектакль посвящается памяти Михаила Фокина.
Видение, которое предлагает Жан-Кристоф Майо, резонирует больше чем воссоединение хореографии и образов, вымышленных или реальных, которые питают своей творческой энергией в течение многих лет. Настоящая красота в мерцающей атмосфере «Тысячи и одной ночи».
Доп. информация: Запись с канала MEZZO
Сэмпл: http://multi-up.com/497136
Качество видео: SATRip
Формат/Контейнер: AVI
Видео кодек: XviD
Аудио кодек: MP3
Видео поток: Xvid 720x416 25.00fps 2004kbps [Video 0]
Аудио поток: MPEG Audio Layer 3 48000Hz stereo 192kbps [Audio 1]

Скриншоты

Format : AVI
Format/Info : Audio Video Interleave
File size : 563 MiB
Duration : 35mn 44s
Overall bit rate : 2 204 Kbps
Writing application : VirtualDubMod 1.5.4.1 (build 2178/release)
Writing library : VirtualDubMod build 2178/release
Video
ID : 0
Format : MPEG-4 Visual
Format profile : Advanced Simple@L5
Format settings, BVOP : Yes
Format settings, QPel : No
Format settings, GMC : No warppoints
Format settings, Matrix : Custom
Codec ID : XVID
Codec ID/Hint : XviD
Duration : 35mn 44s
Bit rate : 2 005 Kbps
Width : 720 pixels
Height : 416 pixels
Display aspect ratio : 16:9
Frame rate : 25.000 fps
Color space : YUV
Chroma subsampling : 4:2:0
Bit depth : 8 bits
Scan type : Progressive
Bits/(Pixel*Frame) : 0.268
Stream size : 512 MiB (91%)
Writing library : XviD 1.2.0.dev47 (UTC 2006-11-01)
Audio
ID : 1
Format : MPEG Audio
Format version : Version 1
Format profile : Layer 3
Mode : Joint stereo
Mode extension : MS Stereo
Codec ID : 55
Codec ID/Hint : MP3
Duration : 35mn 44s
Bit rate mode : Constant
Bit rate : 192 Kbps
Channel(s) : 2 channels
Sampling rate : 48.0 KHz
Stream size : 49.1 MiB (9%)
Alignment : Aligned on interleaves
Interleave, duration : 80 ms (2.00 video frames)
Interleave, preload duration : 504 ms
Writing library : LAME3.97
Encoding settings : -m j -V 4 -q 2 -lowpass 18.6 -b 192

Скриншоты




Показать сообщения:    

Текущее время: 03-Дек 22:46

Часовой пояс: UTC + 3


Вы не можете начинать темы
Вы не можете отвечать на сообщения
Вы не можете редактировать свои сообщения
Вы не можете удалять свои сообщения
Вы не можете голосовать в опросах
Вы не можете прикреплять файлы к сообщениям
Вы не можете скачивать файлы