Сергей Прокофьев - Золушка (Рудольф Нуреев) / Serguei Prokofiev - Cendrillon - Rudolf Nureev (Agnes Letestu, Jose Martinez) [2007, Modern ballet, DVDRip]


 

[Цитировать]

Золушка / Cendrillon
Год выпуска: 2007
Страна-производитель: Франция
Жанр: Modern ballet
Продолжительность: 02:06:12
Перевод: не требуется
Субтитры: нет
Режиссер/Хореограф: Рудольф Нуреев / Rudolf Nureev
Композитир: Сергей Прокофьев / Sergueï Prokofiev
Исполнители музыки: Оркестр Национальной парижской оперы
Дирижер: Koen Kessels
Исполнители:
Cendrillon - Agnes Letestu
Les soeurs - Laetitia Pujol
- Stephanie Romberg
La mere - Stephane Phavorin
L`acteur vedette - Jose Martinez
Le Producteur – Wilfried Romoli
Описание:
Рудольф Нуреев перенес действие “Золушки” в Голливуд тридцатых годов прошлого века. Золушка — нелюбимая падчерица мачехи-актрисы, стремящейся пристроить своих дочерей в кино. Принц — киноактер, пользующийся шумным успехом у женщин, а Фея — всевластный магнат-кинопродюсер. Здесь много ссылок на кинематограф. Золушка мечтательно танцует с вешалкой для шляп, подражая знаменитому танцу Фреда Астера с метлой. Нуреев также вводит в балет фарсовые выходки в чаплиновском духе. Балет заканчивается счастливо: кроме возлюбленного Золушка получает еще и контракт с киностудией.
Сэмпл: http://multi-up.com/527588
Качество видео: DVDRip
Формат/Контейнер: AVI
Видео кодек: DivX
Аудио кодек: MP3
Видео поток: DivX 5 624x352 29.97fps 999kbps
Аудио поток: MPEG Audio Layer 3 48000Hz stereo 192kbps

Mediainfo

Format : AVI
Format/Info : Audio Video Interleave
File size : 1.06 GiB
Duration : 2h 6mn
Overall bit rate : 1 204 Kbps
Movie name : CINDRELLA_DISC1.Title9.DVDRip
Writing application : VirtualDubModRus 1.5.10.2 (build 2540/release)
Writing library : VirtualDubMod build 2540/release
Original source form/Name : CINDRELLA_DISC1
Video
ID : 0
Format : MPEG-4 Visual
Format profile : Simple@L3
Format settings, BVOP : No
Format settings, QPel : No
Format settings, GMC : No warppoints
Format settings, Matrix : Default (H.263)
Codec ID : DX50
Codec ID/Hint : DivX 5
Duration : 2h 6mn
Bit rate : 1 000 Kbps
Width : 624 pixels
Height : 352 pixels
Display aspect ratio : 16:9
Frame rate : 29.970 fps
Color space : YUV
Chroma subsampling : 4:2:0
Bit depth : 8 bits
Scan type : Progressive
Bits/(Pixel*Frame) : 0.152
Stream size : 903 MiB (83%)
Writing library : XviD 1.2.1 (UTC 2008-12-04)
Audio
ID : 1
Format : MPEG Audio
Format version : Version 1
Format profile : Layer 3
Mode : Joint stereo
Mode extension : MS Stereo
Codec ID : 55
Codec ID/Hint : MP3
Duration : 2h 6mn
Bit rate mode : Constant
Bit rate : 192 Kbps
Channel(s) : 2 channels
Sampling rate : 48.0 KHz
Stream size : 173 MiB (16%)
Alignment : Split accross interleaves
Interleave, duration : 33 ms (1.00 video frame)
Interleave, preload duration : 500 ms
Writing library : LAME3.98.2

Скриншот с названием

Скриншоты




Показать сообщения:    

Текущее время: 10-Дек 07:59

Часовой пояс: UTC + 3


Вы не можете начинать темы
Вы не можете отвечать на сообщения
Вы не можете редактировать свои сообщения
Вы не можете удалять свои сообщения
Вы не можете голосовать в опросах
Вы не можете прикреплять файлы к сообщениям
Вы не можете скачивать файлы