Сказочник / Storytelling (Тодд Солондз / Todd Solondz) [2001, США, драма, DVDRip] MVO


Статистика раздачи [Обновить пиров]
Размер:  743 MB   |    Зарегистрирован:  8 месяцев 21 день   |    Скачан:  0 раз

Полного источника не было: Никогда

 
   
 
 
 

[Цитировать]

Сказочник / Storytelling
Год выпуска: 2001
Страна: США
Жанр: драма
Продолжительность: 01:23:19.040 (124976 frames)
Перевод: Профессиональный (многоголосый закадровый)
Оригинальная аудиодорожка: нет
Русские субтитры: нет
Режиссер: Тодд Солондз / Todd Solondz
В ролях: Джон Гудмен, Франка Потенте, Алекса Палладино, Стив Рэйлсбек, Лео Фицпатрик, Пол Джаматти, Ноа Флайсс, Джули Хэгерти, Селма Блэр, Марк Уэббер
Описание: Третья картина замечательного режиссера Тодда Солондза. Премьера ленты "Сказочник" /Storytelling/ (2001) состоялась в Канне в 2001 году, она была затем включена в программы кинофестивалей в Нью-Йорке и Сандэнсе. Газета "New York Times" назвала ее одним из "десяти лучших фильмов года". Cняв «Счастье», он сам на себя навесил уйму дешевых — конвертируемых — ярлыков, но отстранился от них в следующем фильме «Сказочник», самом концептуальном в его карьере. В нем Солондз выступил не только в своей привычной роли социального критика, но и как трезвый, остроумный комментатор этой критики. «Сказочник» — автопародия и рефлексия по поводу цены «независимых кинематографистов» и их небескорыстных отношений с реальностью. Хотя жизнь в Америке совсем не похожа на сказку, там каждый день с людьми происходят события, способные резко изменить их судьбу, тем более, если это — неудачники, неуклюже пытающиеся сделать творческую карьеру. Как начинающей писательнице привлечь внимание знатоков к своим сочинениям? Конечно, переспать с обладателем Пулитцеровской премии, ведущим курсы в третьеразрядном колледже и со злости совращающим наивных студенток! А что делать незадачливому документалисту, мечтающему снять революционный фильм о подростках? Разумеется, рассказать о туповатом школьнике, который хочет стать звездой телевидения! Эти творцы прокладывают себе путь к славе самыми экстремальными методами, надеясь, что шокированная публика оценит их гениальные труды!
Качество: DVDRip
Формат: AVI
Видео кодек: XviD
Аудио кодек: МР3
Видео: 688x368 (1.87:1), 25 fps, XviD build 73 ~1109 kbps avg, 0.18 bit/pixel
Аудио: 48 kHz, MPEG Layer 3, 2 ch, ~128.00 kbps avg

Медиаинфо

F:\skazochnik_745_[torrents.ru]_by_filolya.avi
General
Complete name : F:\skazochnik_745_[torrents.ru]_by_filolya.avi
Format : AVI
Format/Info : Audio Video Interleave
File size : 743 MiB
Duration : 1h 23mn
Overall bit rate : 1 248 Kbps
Director : bm11
Writing application : VirtualDubMod 1.5.10.3 | www.virtualdub-fr.org || (build 2550/release)
Video
Format : MPEG-4 Visual
Format profile : Streaming Video@L1
Format settings, BVOP : Yes
Format settings, QPel : No
Format settings, GMC : No warppoints
Format settings, Matrix : Custom
Codec ID : XVID
Codec ID/Hint : XviD
Duration : 1h 23mn
Bit rate : 1 110 Kbps
Width : 688 pixels
Height : 368 pixels
Display aspect ratio : 1.870
Frame rate : 25.000 fps
Resolution : 24 bits
Colorimetry : 4:2:0
Scan type : Progressive
Bits/(Pixel*Frame) : 0.175
Stream size : 661 MiB (89%)
Writing library : XviD 73
Audio
Format : MPEG Audio
Format version : Version 1
Format profile : Layer 3
Codec ID : 55
Codec ID/Hint : MP3
Duration : 1h 23mn
Bit rate mode : Constant
Bit rate : 128 Kbps
Minimum bit rate : 128 Kbps
Channel(s) : 2 channels
Sampling rate : 48.0 KHz
Resolution : 16 bits
Stream size : 76.3 MiB (10%)
Alignment : Aligned on interleaves
Interleave, duration : 40 ms (1.00 video frame)
Interleave, preload duration : 504 ms
Writing library : LAME3.99r
Encoding settings : CBR
[teatrix.ru].t14881.torrent 
Торрент: Зарегистрирован [ 2016-03-13 21:53 ] · 64916E334DB4A89986EDCE73384F413823888EAC

Скачать .torrent

Скачать

15 KB

Статус: проверено
Скачан: 0 раз
Размер: 743 MB
terms.php



Быстрый ответ

Имя:

      
Для отправки сообщений необходимо включить JavaScript
Показать сообщения:    

Текущее время: 04-Дек 09:09

Часовой пояс: UTC + 3


Вы можете начинать темы
Вы можете отвечать на сообщения
Вы не можете редактировать свои сообщения
Вы не можете удалять свои сообщения
Вы не можете голосовать в опросах
Вы не можете прикреплять файлы к сообщениям
Вы можете скачивать файлы