Парень из нашего города (Марк Захаров) [1978 г., драма, SATRip] (Московский театр Ленком)


 

[Цитировать]

Парень из нашего города
Московский театр Ленком
Телеверсия спектакля
Год выпуска: 1978
Жанр: драма
Продолжительность: 01:28:26
Режиссер: Марк Захаров, Юрий Махаев
В ролях:
Сергей Луконин - В. Проскурин
Аркадий Бурмин - О. Янковский
Варя - Т. Дербенева
Анна Ивановна - Л. Пономарева
Петька - А. Тульев
Женя - Л. Зорина
Володя Гуляев - В. Лосьянов
Васнецов - Ю Колычев
Гулиашвили - Ю. Зайцев
Севастьянов - В. Кузнецов
Сафонов - Ю. Астафьев
Полина Францевна - Е. Фадеева
Офицер - Б. Никифоров
Переводчик - М. Поляк
Старуха - З. Щенникова
Баянист - В. Шкиль
Описание: Тяжелые испытания выпали на долю молодого офицера Сергея Луконина: война в Испании, ранение, бегство из плена, бои на Халкин-Голе. Но он преодолевает все трудности, проявляя мужество, убежденность в правоте дела, за которое борется.
В спектакле звучат стихи К.Симонова, М.Светлова, И.Уткина, К.Отрады, М.Кульчицкого, С.Гудзенко.
Вступительное слово Марка Захарова и Юрия Махаева
РЕЛИЗ
Семпл: https://www.mediafire.com/?g22ae9bb2ihd9sz
Качество: SATRip
Формат: AVI
Видео кодек: XviD
Аудио кодек: MP3
Видео: 720x544 (1.32:1), 25 fps, XviD MPEG-4 ~2066 kbps avg, 0.21 bit/pixel
Аудио: 48 kHz, MPEG Layer 3, 2 ch, ~128.00 kbps avg

MediaInfo

Полное имя : Paren.iz.nashego.goroda.1978.SATRip.fenixclub.avi
Формат : AVI
Формат/Информация : Audio Video Interleave
Размер файла : 1,36 Гбайт
Продолжительность : 1 ч. 28 м.
Общий поток : 2205 Кбит/сек
Программа кодирования : VirtualDubModRus 1.5.10.2 (build 2542/release)
Библиотека кодирования : VirtualDub build 32842/release
Видео
Идентификатор : 0
Формат : MPEG-4 Visual
Профиль формата : Advanced Simple@L5
Параметр BVOP формата : 2
Параметр QPel формата : Нет
Параметр GMC формата : Без точки перехода
Параметр матрицы формата : Default (H.263)
Режим смешивания : Сжатый битовый поток
Идентификатор кодека : XVID
Идентификатор кодека/Подсказка : XviD
Продолжительность : 1 ч. 28 м.
Битрейт : 2067 Кбит/сек
Ширина : 720 пикселей
Высота : 544 пикселя
Соотношение сторон : 4:3
Частота кадров : 25,000 кадров/сек
Цветовое пространство : YUV
Субдискретизация насыщенности : 4:2:0
Битовая глубина : 8 бит
Тип развёртки : Прогрессивная
Метод сжатия : С потерями
Бит/(Пиксели*Кадры) : 0.211
Размер потока : 1,28 Гбайт (94%)
Библиотека кодирования : XviD 1.2.1 (UTC 2008-12-04)
Аудио
Идентификатор : 1
Формат : MPEG Audio
Версия формата : Version 1
Профиль формата : Layer 3
Режим : Joint stereo
Расширение режима : MS Stereo
Идентификатор кодека : 55
Идентификатор кодека/Подсказка : MP3
Продолжительность : 1 ч. 28 м.
Вид битрейта : Постоянный
Битрейт : 128 Кбит/сек
Каналы : 2 канала
Частота : 48,0 КГц
Метод сжатия : С потерями
Размер потока : 81,0 Мбайт (6%)
Выравнивание : Разделение по промежуткам
Продолжительность промежутка : 40 мс. (1,00 видеокадр)
Время предзагрузки промежутка : 500 мс.

Скриншот с названием постановки

Скриншоты


Торрент перезалит 10 ноября 2014 года



Показать сообщения:    

Текущее время: 06-Дек 17:10

Часовой пояс: UTC + 3


Вы не можете начинать темы
Вы не можете отвечать на сообщения
Вы не можете редактировать свои сообщения
Вы не можете удалять свои сообщения
Вы не можете голосовать в опросах
Вы не можете прикреплять файлы к сообщениям
Вы не можете скачивать файлы