Слезы Марко Поло (Жан-Клод Галотта) / Shuya Xu - Les Larmes de Marco Polo - Jean-Claude Gallotta [2000, modern ballet, SATRip]


 

[Цитировать]

Слезы Марко Поло / Les Larmes de Marco Polo
Год выпуска: 2000
Страна-производитель: Франция
Жанр: modern ballet
Продолжительность: 01:12:25
Язык: французский
Перевод: не требуется
Субтитры: нет
Режиссер/Хореограф: Жан-Клод Галотта / Jean-Claude Gallotta
Исполнители: Ximena Figueroa, Ludovic Galvan, Benjamin Houal, Yannick Hugron, Hee-Jin Kim, Kae Kurachi, Massa Sugiyama, Thierry Verger, et Jean-Claude Gallotta dans le rôle créé pour Lucien Mars
Музыка: Shuya Xu
Исполнители музыки: Weiliang Zhang (flutes), Vincent Debruyne (alto), Thierry Miroglio (percussions)
Описание:
Балет "Слезы Марко Поло" был показан 12 сентября 2000 года в рамках девятого Biennale Internationale de la Danse de Lyon.
Запись с канала MEZZO/
Качество видео: SATRip
Формат/Контейнер: AVI
Видео кодек: XviD
Аудио кодек: MP3
Видео поток: Xvid 544x320 25.00fps 1405kbps
Аудио поток: MPEG Audio Layer 3 48000Hz stereo 128kbps

Mediainfo

Format : AVI
Format/Info : Audio Video Interleave
File size : 799 MiB
Duration : 1h 12mn
Overall bit rate : 1 543 Kbps
Writing application : VirtualDubModRus 1.5.10.2 (build 2540/release)
Writing library : VirtualDubMod build 2540/release
Video
ID : 0
Format : MPEG-4 Visual
Format profile : Advanced Simple@L5
Format settings, BVOP : No
Format settings, QPel : No
Format settings, GMC : No warppoints
Format settings, Matrix : Custom
Codec ID : XVID
Codec ID/Hint : XviD
Duration : 1h 12mn
Bit rate : 1 406 Kbps
Width : 544 pixels
Height : 320 pixels
Display aspect ratio : 16:9
Frame rate : 25.000 fps
Color space : YUV
Chroma subsampling : 4:2:0
Bit depth : 8 bits
Scan type : Progressive
Bits/(Pixel*Frame) : 0.323
Stream size : 728 MiB (91%)
Writing library : XviD 1.2.1 (UTC 2008-12-04)
Audio
ID : 1
Format : MPEG Audio
Format version : Version 1
Format profile : Layer 3
Codec ID : 55
Codec ID/Hint : MP3
Duration : 1h 12mn
Bit rate mode : Constant
Bit rate : 128 Kbps
Channel(s) : 2 channels
Sampling rate : 48.0 KHz
Stream size : 66.3 MiB (8%)
Alignment : Aligned on interleaves
Interleave, duration : 40 ms (1.00 video frame)
Interleave, preload duration : 504 ms
Writing library : LAME3.98r
Encoding settings : -m s -V 4 -q 2 -lowpass 17 -b 128
Сэмпл: http://multi-up.com/593012

Скриншот названия

Скриншоты




Показать сообщения:    

Текущее время: 10-Дек 08:05

Часовой пояс: UTC + 3


Вы не можете начинать темы
Вы не можете отвечать на сообщения
Вы не можете редактировать свои сообщения
Вы не можете удалять свои сообщения
Вы не можете голосовать в опросах
Вы не можете прикреплять файлы к сообщениям
Вы не можете скачивать файлы