Приют комедиантов. Выпуск 31. Елка для взрослых (Сергей Варновский) [2011 г., Капустник, SATRip]


Статистика раздачи [Обновить пиров]
Размер:  1.1 GB   |    Зарегистрирован:  8 месяцев 26 дней   |    Скачан:  0 раз

Полного источника не было: Никогда

Личеров:  28  [  0 KB/s  ]   Подробная статистика пиров
 
   
 
 
 

[Цитировать]

Приют комедиантов. Выпуск 31. Елка для взрослых
Год выпуска: 2011
Жанр: Капустник
Производство: ООО "Эксклюзив ТВ".
Продолжительность: 01:29:46
Режиссер: Сергей Варновский
В ролях: Лев Дуров, Алексей Колган, Клара Новикова, Валерий Ярёменко, Марина Могилевская, Ирина Апексимова, Алексей Кортнев, Лариса Рубальская, Алексей Рыбников, Михаил Борисов, Екатерина Семёнова, Елена Валюшкина.
Описание:
Новогодние праздники становятся для актеров синонимом слова "ёлки". Все "заслуженные" и "народные" в своё время прошли горнило многочисленных ёлок в качестве Дедов Морозов и Снегурочек, а их более молодые коллеги в полном объёме познали все "прелести" модных ныне корпоративов...
Почему композитор и певец Виктор Чайка зарекся выступать на частных новогодних вечеринках после того, как ему как-то раз пришлось примерить на себя образ… Ирины Аллегровой?! Каким образом популярному исполнителю и замечательному композитору Трофиму посчастливилось сыграть главную роль в сказке "Снежный король" в эксклюзивной постановке? Какие слова произнесла Юлия Борисова, когда Дед Мороз в лице Валерия Яременко оставил свою бедную внучку (Людмилу Артемьеву) запертой в тесном чулане… на лыжах? Актер решил нарушить давний обет молчания именно в этом году, в нашей программе. Что за роль однажды так и не досталась под Новый год блистательному Льву Дурову, и почему в связи с самым любимым праздником всех времен и народов ему особенно дороги образы Лисы и Петуха. А как вышло, что знаменитый Иосиф Кобзон оказался перед одним из грандиозных советских новогодних концертов… в метро?
Премьерный телеэфир - 28 декабря 2011 г.
Доп. информация: Торрент перезалит. В раздаче использована запись эфира от 8 января 2013 г.
Семпл: http://multi-up.com/815586
Качество: SATRip
Формат: AVI
Видео кодек: XviD
Аудио кодек: MP3
Видео: 720x528 (1.36:1), 25 fps, XviD build 50 ~1558 kbps avg, 0.16 bit/pixel
Аудио: 48 kHz, MPEG Layer 3, 2 ch, ~192.00 kbps avg

MediaInfo

Общее
Полное имя : 31.Prijut.komediantov.Elka.Satrip.by.igor0mr.avi
Формат : AVI
Формат/Информация : Audio Video Interleave
Профиль формата : OpenDML
Размер файла : 1,10 Гбайт
Продолжительность : 1 ч. 29 м.
Общий поток : 1758 Кбит/сек
Программа кодирования : MEncoder SVN-r33883(20110719-gcc4.5.2)
Библиотека кодирования : MPlayer
Видео
Идентификатор : 0
Формат : MPEG-4 Visual
Профиль формата : Advanced Simple@L5
Параметр BVOP формата : 2
Параметр QPel формата : Нет
Параметр GMC формата : Без точки перехода
Параметр матрицы формата : Default (H.263)
Идентификатор кодека : XVID
Идентификатор кодека/Подсказка : XviD
Продолжительность : 1 ч. 29 м.
Битрейт : 1550 Кбит/сек
Ширина : 720 пикселей
Высота : 528 пикселей
Соотношение сторон : 4:3
Частота кадров : 25,000 кадров/сек
Цветовое пространство : YUV
Субдискретизация насыщенности : 4:2:0
Битовая глубина : 8 бит
Тип развёртки : Прогрессивная
Метод сжатия : С потерями
Бит/(Пиксели*Кадры) : 0.163
Размер потока : 995 Мбайт (88%)
Библиотека кодирования : XviD 1.2.1 (UTC 2008-12-04)
Аудио
Идентификатор : 1
Формат : MPEG Audio
Версия формата : Version 1
Профиль формата : Layer 3
Режим : Joint stereo
Расширение режима : MS Stereo
Идентификатор кодека : 55
Идентификатор кодека/Подсказка : MP3
Продолжительность : 1 ч. 29 м.
Вид битрейта : Постоянный
Битрейт : 192 Кбит/сек
Каналы : 2 канала
Частота : 48,0 КГц
Метод сжатия : С потерями
Задержка видео : 40 мс.
Размер потока : 123 Мбайт (11%)
Выравнивание : Соединение по промежуткам
Продолжительность промежутка : 24 мс. (0,60 видеокадр)
Время предзагрузки промежутка : 504 мс.

Скриншот с названием передачи

[teatrix.ru].t14894.torrent 
Торрент: Зарегистрирован [ 2016-03-13 22:55 ] · 2BF7CB257C1A1D2D7CF0D0A921C9ED8C1B61EFAF

Скачать .torrent

Скачать

12 KB

Статус: проверено
Скачан: 0 раз
Размер: 1.1 GB
terms.php



Быстрый ответ

Имя:

      
Для отправки сообщений необходимо включить JavaScript
Показать сообщения:    

Текущее время: 09-Дек 22:26

Часовой пояс: UTC + 3


Вы можете начинать темы
Вы можете отвечать на сообщения
Вы не можете редактировать свои сообщения
Вы не можете удалять свои сообщения
Вы не можете голосовать в опросах
Вы не можете прикреплять файлы к сообщениям
Вы можете скачивать файлы