П.И.Чайковский - Щелкунчик и мышиный король (Dutch National Ballet) / P.I.Tchaikovsky - The Nutcracker and the Mouse King (Emmano Florio, Nadia Yanowsky, Matthew Golding, Anna Tsygankova) [2011, Ballet, HDTVRip]


 

[Цитировать]

Щелкунчик и мышиный король / The Nutcracker and the Mouse King
Год выпуска: 2011
Страна-производитель: Нидерланды
Жанр: Ballet
Продолжительность: 01:48:07
Композитор: П.И.Чайковский / P.I.Tchaikovsky
Исполнители музыки: Holland Symfonia Orchestra
Дирижер: Emmano Florio
Режиссер/Хореограф: Toer van Schayk, Wayne Eagling
Исполнители:
Clara Staalboom - Anna Tsygankova
Prince - Matthew Golding
Nutcracker - James Stout
Mr. Drosseleijer – Wolfgang Tietze
Louise – Nadia Yanowsky
Frits – Rink Sliphorst
Mouse King - Alexander Zhembrovskyy
Jurgita Dronina, Cédric Ygnace, Félipe Diaz, Maia Makhateli, Tamás Nagy, Juanjo Arqués, Igone de Jongh, Casey Herd, Larissa Lezhnina, Jozef Varga, Jared Wright, Marijn Rademaker, Anu Viheriäranta, Artur Shesterikov, Roman Artyushkin.
Описание:
Choreographed by Wayne Eagling (Artistic Director of the English National Ballet) and Toer van Schayk, Nutcracker & the Mouse King features one of the ballet world's star couples, Anna Tsygankova and Matthew Golding. This fabulous Russian/Canadian pairing have wowed audiences with their electrifying performances. They lead a truly international cast in this epic tale of the battle between the Mouse King and Nutcracker Prince, assisted by by a host of fairytale characters.
The ballet is set in an Amsterdam canal house on the eve of St. Nicolas and set designer Toer van Schayk has created an enchanting winter wonderland of frozen canals, skillful skaters and falling snow. The Dutch National Ballet is one of Europe's leading classical ballet companies with an extensive repertoire of large-scale productions by well-known choreographers.
Доп. информация:
Рип с раздачи на HDclub
Большое спасибо автору sergey_n
сэмпл http://multi-up.com/656787
Качество видео: HDTVRip
Формат/Контейнер: AVI
Видео кодек: XviD
Аудио кодек: AC3
Видео поток: Xvid 640x360 25.00fps 1482kbps
Аудио поток: Dolby AC3 48000Hz 6ch 448kbps

Mediainfo

Format : AVI
Format/Info : Audio Video Interleave
File size : 1.47 GiB
Duration : 1h 48mn
Overall bit rate : 1 940 Kbps
Writing application : VirtualDubMod 1.5.10.2 (build 2540/release)
Writing library : VirtualDubMod build 2540/release
Video
ID : 0
Format : MPEG-4 Visual
Format profile : Advanced Simple@L5
Format settings, BVOP : Yes
Format settings, QPel : No
Format settings, GMC : No warppoints
Format settings, Matrix : Default (MPEG)
Codec ID : XVID
Codec ID/Hint : XviD
Duration : 1h 48mn
Bit rate : 1 483 Kbps
Width : 640 pixels
Height : 360 pixels
Display aspect ratio : 16:9
Frame rate : 25.000 fps
Color space : YUV
Chroma subsampling : 4:2:0
Bit depth : 8 bits
Scan type : Progressive
Bits/(Pixel*Frame) : 0.257
Stream size : 1.12 GiB (76%)
Writing library : XviD 1.2.1 (UTC 2008-12-04)
Audio
ID : 1
Format : AC-3
Format/Info : Audio Coding 3
Mode extension : CM (complete main)
Codec ID : 2000
Duration : 1h 48mn
Bit rate mode : Constant
Bit rate : 448 Kbps
Channel(s) : 6 channels
Channel positions : Front: L C R, Side: L R, LFE
Sampling rate : 48.0 KHz
Bit depth : 16 bits
Stream size : 346 MiB (23%)
Alignment : Aligned on interleaves
Interleave, duration : 40 ms (1.00 video frame)
Interleave, preload duration : 512 ms

Скриншоты




Показать сообщения:    

Текущее время: 05-Дек 11:33

Часовой пояс: UTC + 3


Вы не можете начинать темы
Вы не можете отвечать на сообщения
Вы не можете редактировать свои сообщения
Вы не можете удалять свои сообщения
Вы не можете голосовать в опросах
Вы не можете прикреплять файлы к сообщениям
Вы не можете скачивать файлы