Приют комедиантов. Выпуск 34. Путь к славе (Сергей Варновский) [2012, Капустник, SATRip]


Статистика раздачи [Обновить пиров]
Размер:  1.1 GB   |    Зарегистрирован:  8 месяцев 25 дней   |    Скачан:  0 раз

Полного источника не было: Никогда

Личеров:  41  [  0 KB/s  ]   Подробная статистика пиров
 
   
 
 
 

[Цитировать]

Приют комедиантов. Выпуск 34. Путь к славе
Жанр: Капустник
Год выпуска: 2012
Производство: ООО "Эксклюзив ТВ".
Продолжительность: 01:29:58
Режиссёр: Сергей Варновский
Ведущие: Екатерина Уфимцева, Михаил Швыдкой
В ролях: Александр Ширвиндт, Лев Дуров, Полад Бюль-Бюль Оглы, Борис Грачевский, Марина Голуб, Татьяна Веденеева, Ефим Шифрин, Николай Чиндяйкин, Ольга Будина, Вячеслав Войнаровский, Роман Мадянов, Анатолий Лобоцкий и другие.
Описание: Каким был путь к славе у кумиров публики? У многих ли он оказывался простым и безоблачным? Как Лев Дуров удобрял кукурузу и выступал в роли молодого огурца, из-за чего Николай Чиндяйкин забыл слова Морального кодекса строителя коммунизма прямо во время выступления, и как получилось, что пик популярности Александра Ширвиндта случился в туалете?
Об этом и о многом другом расскажут гости, чей "звёздный" статус уже давно не подлежит никакому сомнению.
Доп. информация: Премьерный телеэфир 1 мая 2012 г.
Семпл: http://multi-up.com/695841
Качество видео: SATRip
Формат видео: AVI
Аудио кодек: MP3
Видео кодек: XviD
Видео: 704x528 (1.33:1), 25 fps, XviD build 50 ~1549 kbps avg, 0.17 bit/pixel
Аудио: 48 kHz, MPEG Layer 3, 2 ch, ~192.00 kbps avg

MediaInfo

Общее
Полное имя : 34.Prijut.komediantov.Put'.K.Slave.Satrip.by.igor0mr.avi
Формат : AVI
Формат/Информация : Audio Video Interleave
Профиль формата : OpenDML
Размер файла : 1,10 Гбайт
Продолжительность : 1 ч. 29 м.
Общий поток : 1748 Кбит/сек
Программа кодирования : MEncoder SVN-r30881(20100311-gcc4.3.3)
Библиотека кодирования : MPlayer
Видео
Идентификатор : 0
Формат : MPEG-4 Visual
Профиль формата : Advanced Simple@L5
Параметр BVOP формата : 2
Параметр QPel формата : Нет
Параметр GMC формата : Без точки перехода
Параметр матрицы формата : Default (H.263)
Идентификатор кодека : XVID
Идентификатор кодека/Подсказка : XviD
Продолжительность : 1 ч. 29 м.
Битрейт : 1540 Кбит/сек
Ширина : 704 пикселя
Высота : 528 пикселей
Соотношение сторон : 4:3
Частота кадров : 25,000 кадров/сек
Цветовое пространство : YUV
Субдискретизация насыщенности : 4:2:0
Битовая глубина : 8 бит
Тип развёртки : Прогрессивная
Метод сжатия : С потерями
Бит/(Пиксели*Кадры) : 0.166
Размер потока : 991 Мбайт (88%)
Библиотека кодирования : XviD 1.2.1 (UTC 2008-12-04)
Аудио
Идентификатор : 1
Формат : MPEG Audio
Версия формата : Version 1
Профиль формата : Layer 3
Режим : Joint stereo
Расширение режима : MS Stereo
Идентификатор кодека : 55
Идентификатор кодека/Подсказка : MP3
Продолжительность : 1 ч. 29 м.
Вид битрейта : Постоянный
Битрейт : 192 Кбит/сек
Каналы : 2 канала
Частота : 48,0 КГц
Метод сжатия : С потерями
Задержка видео : 40 мс.
Размер потока : 124 Мбайт (11%)
Выравнивание : Соединение по промежуткам
Продолжительность промежутка : 24 мс. (0,60 видеокадр)
Время предзагрузки промежутка : 504 мс.

СкриншотыСкриншот с названием



[teatrix.ru].t14907.torrent 
Торрент: Зарегистрирован [ 2016-03-13 22:53 ] · 20611D4DCE36B020F9CD39F60FB46914059748A1

Скачать .torrent

Скачать

12 KB

Статус: проверено
Скачан: 0 раз
Размер: 1.1 GB
terms.php



Быстрый ответ

Имя:

      
Для отправки сообщений необходимо включить JavaScript
Показать сообщения:    

Текущее время: 08-Дек 21:14

Часовой пояс: UTC + 3


Вы можете начинать темы
Вы можете отвечать на сообщения
Вы не можете редактировать свои сообщения
Вы не можете удалять свои сообщения
Вы не можете голосовать в опросах
Вы не можете прикреплять файлы к сообщениям
Вы можете скачивать файлы