Истории подземки / Tube Tales (Гэби Диллэл / Gaby Dellal, Стивен Хопкинс / Stephen Hopkins, Боб Хоскинс / Bob Hoskins) [1999, Великобритания, Драма, DVDRip-AVC] MVO + Original Eng


Статистика раздачи [Обновить пиров]
Размер:  1.41 GB   |    Зарегистрирован:  8 месяцев 23 дня   |    Скачан:  0 раз

Полного источника не было: Никогда

Личеров:  40  [  0 KB/s  ]   Подробная статистика пиров
 
   
 
 
 

[Цитировать]

Истории подземки / Tube Tales
Страна: Великобритания
Жанр: Драма
Год выпуска: 1999
Продолжительность: 1:24:00
Перевод: Профессиональный (двухголосый закадровый) Источник
Cубтитры: нет
Оригинальная аудиодорожка: английский
Режиссер: Гэби Диллэл / Gaby Dellal, Стивен Хопкинс / Stephen Hopkins, Боб Хоскинс / Bob Hoskins, Менхай Xада / Menhaj Huda, Армандо Ианнуччи / Armando Iannucci, Эми Дженкинс / Amy Jenkins, Джуд Лоу / Jude Law, Чарльз МакДугалл / Charles McDougall, Юэн МакГрегор / Ewan McGregor
В ролях: Эд Аллен, Том Белл, Джим Картер, Хелен Кокер, Донья Кролл, Кэй Керрэм, Стефен Да Коста, Эдна Доре, Клинг Дайер, Кармен Эджого
Описание: Несколько удивительных историй, произошедших в лондонском метро, наполненных настоящим английским юмором. Смешные, трогательные, мистические, иногда поучительные и всегда оригинальные истории о «крутых парнях», неудачнике драг-диллере, нимфоманке, чудаковатом романтике — в общем, обо всех тех, с кем нам приходится сталкиваться в обычной жизни. Порой мы даже не представляем, что у каждого из них есть своя невероятная история.
Сэмпл
Качество видео: DVDRip-AVC
Формат видео: MKV
Видео: AVC, 720х416, 16х9, 25.000 fps, 1 963 Kbps
Аудио: AC3, 48.0 KHz, 192 kbps, 2 ch (Rus-MVO)
Аудио 2: AC3, 48.0 KHz, 192 kbps, 2 ch (Eng-original)

MediaInfo

General
Complete name : Tube Tales 1999.mkv
Format : Matroska
File size : 1.41 GiB
Duration : 1h 24mn
Overall bit rate : 2 395 Kbps
Movie name : Done with AutoMKV 0.98.4
Encoded date : UTC 2012-06-02 15:15:20
Writing application : mkvmerge v3.2.0 ('Beginnings') built on Feb 12 2010 16:46:17
Writing library : libebml v0.7.9 + libmatroska v0.8.1
Video
ID : 1
Format : AVC
Format/Info : Advanced Video Codec
Format profile : High@L4.0
Format settings, CABAC : Yes
Format settings, ReFrames : 6 frames
Muxing mode : Container profile=Unknown@4.0
Codec ID : V_MPEG4/ISO/AVC
Duration : 1h 24mn
Bit rate : 1 963 Kbps
Nominal bit rate : 2 009 Kbps
Width : 720 pixels
Height : 416 pixels
Display aspect ratio : 16:9
Original display aspect ratio : 16:9
Frame rate : 25.000 fps
Resolution : 8 bits
Colorimetry : 4:2:0
Scan type : Progressive
Bits/(Pixel*Frame) : 0.262
Stream size : 1.15 GiB (82%)
Title : origin
Writing library : x264 core 66 r1092 60f4cd8
Encoding settings : cabac=1 / ref=6 / deblock=1:-1:-1 / analyse=0x3:0x113 / me=umh / subme=7 / psy_rd=1.0:1.0 / mixed_ref=1 / me_range=16 / chroma_me=1 / trellis=2 / 8x8dct=1 / cqm=0 / deadzone=21,11 / chroma_qp_offset=-4 / threads=3 / nr=0 / decimate=1 / mbaff=0 / bframes=6 / b_pyramid=1 / b_adapt=2 / b_bias=0 / direct=3 / wpredb=1 / keyint=250 / keyint_min=25 / scenecut=40(pre) / rc=2pass / bitrate=2009 / ratetol=1.0 / qcomp=0.60 / qpmin=10 / qpmax=51 / qpstep=4 / cplxblur=20.0 / qblur=0.5 / vbv_maxrate=25000 / vbv_bufsize=14000 / ip_ratio=1.40 / pb_ratio=1.30 / aq=1:1.00
Audio #1
ID : 2
Format : AC-3
Format/Info : Audio Coding 3
Codec ID : A_AC3
Duration : 1h 24mn
Bit rate mode : Constant
Bit rate : 192 Kbps
Channel(s) : 2 channels
Channel positions : Front: L R
Sampling rate : 48.0 KHz
Stream size : 116 MiB (8%)
Title : Rus-VO
Language : Russian
Audio #2
ID : 3
Format : AC-3
Format/Info : Audio Coding 3
Codec ID : A_AC3
Duration : 1h 24mn
Bit rate mode : Constant
Bit rate : 192 Kbps
Channel(s) : 2 channels
Channel positions : Front: L R
Sampling rate : 48.0 KHz
Stream size : 116 MiB (8%)
Title : Eng-Original
Language : English
Menu
00:00:00.000 : en:Chapter 1
00:04:41.680 : en:Chapter 2
00:05:42.360 : en:Chapter 3
00:12:27.920 : en:Chapter 4
00:23:39.680 : en:Chapter 5
00:34:06.200 : en:Chapter 6
00:43:38.480 : en:Chapter 7
00:50:48.960 : en:Chapter 8
00:58:32.200 : en:Chapter 9
01:04:36.720 : en:Chapter 10
01:21:10.760 : en:Chapter 11

Скриншот c названием фильма

Скриншоты

[teatrix.ru].t14931.torrent 
Торрент: Зарегистрирован [ 2016-03-13 22:52 ] · 1AA037D3C07D243DD5E1EF67608CDDDB8579E0B0

Скачать .torrent

Скачать

29 KB

Статус: проверено
Скачан: 0 раз
Размер: 1.41 GB
terms.php



Быстрый ответ

Имя:

      
Для отправки сообщений необходимо включить JavaScript
Показать сообщения:    

Текущее время: 06-Дек 20:56

Часовой пояс: UTC + 3


Вы можете начинать темы
Вы можете отвечать на сообщения
Вы не можете редактировать свои сообщения
Вы не можете удалять свои сообщения
Вы не можете голосовать в опросах
Вы не можете прикреплять файлы к сообщениям
Вы можете скачивать файлы