Азниф / Aznif (Эдуард Оганесян) [2010, Россия, трагикомедия, HDRip-AVC] Original Rus


Статистика раздачи [Обновить пиров]
Размер:  274 MB   |    Зарегистрирован:  8 месяцев 27 дней   |    Скачан:  0 раз

Полного источника не было: Никогда

Личеров:  41  [  0 KB/s  ]   Подробная статистика пиров
 
   
 
 
 

[Цитировать]

Азниф- -Страна: РФ
Жанр: трагикомедия
Год выпуска: 2010
Продолжительность: 00:20:09
-Режиссер: Эдуард Оганесян
Оператор: Юрий Никогосов
В ролях: Нино Чхеидзе, Лия Капонадзе, Бидзина Махарадзе, Тамуна Бухникашвили, Коте Толордава, Лика Гегелашвили, Роман Бриссон, Кесо Кахниашвили, Кесо Тония, Елене Ратеишвили, Георгий Миликишвили
-Описание: У маленького Эдо день рождения, и вся большая семья собралась за столом. Только дядя Роман отсутствует... Вскоре мужчина появляется, но вместо подарка приносит в руках боевую гранату. Чтобы обезвредить ее, нужно вставить чеку, а ее он где-то потерял. Семья в панике, вот-вот прогремит взрыв, и только столетняя бабушка Азниф спокойна и спасает праздник.-Качество видео: HDRip-AVC
Формат видео: MP4
Видео: mp42, 720*476, 16:9, 25.000 fps, 1 901 Kbps
Аудио: AAC, 48khz, 192 kbps, Front: L R

MediaInfo

General
Complete name : D:\azn.mp4
Format : MPEG-4
Format profile : Base Media / Version 2
Codec ID : mp42
File size : 274 MiB
Duration : 20mn 9s
Overall bit rate mode : Variable
Overall bit rate : 1 901 Kbps
Encoded date : UTC 2012-06-20 18:21:48
Tagged date : UTC 2012-06-20 18:21:48
©TIM : 00:00:00:00
©TSC : 25
©TSZ : 1
Video
ID : 1
Format : AVC
Format/Info : Advanced Video Codec
Format profile : Main@L3.1
Format settings, CABAC : Yes
Format settings, ReFrames : 3 frames
Format settings, GOP : M=4, N=33
Codec ID : avc1
Codec ID/Info : Advanced Video Coding
Duration : 20mn 9s
Bit rate : 1 708 Kbps
Width : 720 pixels
Height : 576 pixels
Display aspect ratio : 16:9
Frame rate mode : Constant
Frame rate : 25.000 fps
Standard : PAL
Color space : YUV
Chroma subsampling : 4:2:0
Bit depth : 8 bits
Scan type : Interlaced
Scan order : Bottom Field First
Bits/(Pixel*Frame) : 0.165
Stream size : 246 MiB (90%)
Language : English
Encoded date : UTC 2012-06-20 18:21:48
Tagged date : UTC 2012-06-20 18:21:48
Audio
ID : 2
Format : AAC
Format/Info : Advanced Audio Codec
Format profile : LC
Codec ID : 40
Duration : 20mn 9s
Bit rate mode : Variable
Bit rate : 192 Kbps
Maximum bit rate : 303 Kbps
Channel(s) : 2 channels
Channel positions : Front: L R
Sampling rate : 48.0 KHz
Compression mode : Lossy
Stream size : 27.3 MiB (10%)
Language : English
Encoded date : UTC 2012-06-20 18:21:48
Tagged date : UTC 2012-06-20 18:21:48
Material_Duration : 1209600
Material_StreamSize : 28633500

Скриншот c названием фильма

Скриншоты







[teatrix.ru].t14945.torrent 
Торрент: Зарегистрирован [ 2016-03-13 22:51 ] · 81F024467356D51DB176968BC38996AD719B8D70

Скачать .torrent

Скачать

11 KB

Статус: проверено
Скачан: 0 раз
Размер: 274 MB
terms.php



Быстрый ответ

Имя:

      
Для отправки сообщений необходимо включить JavaScript
Показать сообщения:    

Текущее время: 10-Дек 06:10

Часовой пояс: UTC + 3


Вы можете начинать темы
Вы можете отвечать на сообщения
Вы не можете редактировать свои сообщения
Вы не можете удалять свои сообщения
Вы не можете голосовать в опросах
Вы не можете прикреплять файлы к сообщениям
Вы можете скачивать файлы