Настройщик / L'Accordeur (Оливье Трейнье / Olivier Treiner) [2010, Франция, Драма, короткий метр, SATRip] Sub Rus + Original Fre


Статистика раздачи [Обновить пиров]
Размер:  200 MB   |    Зарегистрирован:  8 месяцев 27 дней   |    Скачан:  0 раз

Полного источника не было: Никогда

Личеров:  6  [  0 KB/s  ]   Подробная статистика пиров
 
   
 
 
 

[Цитировать]

Настройщик / L'Accordeur
Страна: Франция
Жанр: Драма, короткий метр
Год выпуска: 2010
Продолжительность: 00:13:35
Перевод: Субтитры
Cубтитры: русские
Оригинальная аудиодорожка: французский
Режиссер: Оливье Трейнье / Olivier Treiner
В ролях: Грегуар Лепренс-Ренге, Даниель Лебрюн, Грегори Гадебуа, Эмелин Ге.
Описание: Адриан — молодой одаренный пианист. Он переживает психологическую травму после провала на конкурсе Бернштайна и решает стать настройщиком фортепиано. Вскоре Адриану приходит мысль притворяться слепым: теперь он может проникать в личное пространство своих клиентов. Эта тайна позволяет ему вновь почувствовать вкус к музыке. Адриан видит вещи, которые не должен видеть, и в один прекрасный день становится случайным свидетелем убийства…

Релиз киноклуба
Фильм раздаётся с любезного разрешения tengu
Качество видео: SATRip
Формат видео: AVI
Видео: 720x304 (2.37:1), 25 fps, XviD build 50 ~1920 kbps avg, 0.35 bit/pixel
Аудио: 48 kHz, MPEG Layer 3, 2 ch, ~128.00 kbps avg
Формат субтитров: softsub (SRT)

MediaInfo

General
Complete name : D:\Public\L'Accordeur 2010\L'Accordeur 2010.avi
Format : AVI
Format/Info : Audio Video Interleave
File size : 200 MiB
Duration : 13mn 35s
Overall bit rate : 2 059 Kbps
Writing application : VirtualDubMod 1.5.10.2 (build 2540/release)
Writing library : VirtualDubMod build 2540/release
Video
ID : 0
Format : MPEG-4 Visual
Format profile : Advanced Simple@L5
Format settings, BVOP : 1
Format settings, QPel : No
Format settings, GMC : No warppoints
Format settings, Matrix : Default (H.263)
Codec ID : XVID
Codec ID/Hint : XviD
Duration : 13mn 35s
Bit rate : 1 921 Kbps
Width : 720 pixels
Height : 304 pixels
Display aspect ratio : 2.35:1
Frame rate : 25.000 fps
Color space : YUV
Chroma subsampling : 4:2:0
Bit depth : 8 bits
Scan type : Progressive
Compression mode : Lossy
Bits/(Pixel*Frame) : 0.351
Stream size : 187 MiB (93%)
Writing library : XviD 1.2.1 (UTC 2008-12-04)
Audio
ID : 1
Format : MPEG Audio
Format version : Version 1
Format profile : Layer 3
Mode : Joint stereo
Mode extension : MS Stereo
Codec ID : 55
Codec ID/Hint : MP3
Duration : 13mn 35s
Bit rate mode : Constant
Bit rate : 128 Kbps
Channel(s) : 2 channels
Sampling rate : 48.0 KHz
Compression mode : Lossy
Stream size : 12.4 MiB (6%)
Alignment : Split accross interleaves
Interleave, duration : 40 ms (1.00 video frame)
Interleave, preload duration : 500 ms
Writing library : LAME3.97

Скриншот c названием фильма

Скриншоты

Фрагмент субтитров

7
00:00:21,880 --> 00:00:25,119
Я редко играю на публике.
8
00:00:25,780 --> 00:00:28,879
Только в самых исключительных
случаях.
9
00:00:28,920 --> 00:00:29,839
Как сегодня.
10
00:00:33,140 --> 00:00:35,839
Кто этот мужчина?
Я его не знаю.
11
00:00:38,120 --> 00:00:40,119
Я его не вижу.
12
00:00:40,359 --> 00:00:42,478
Я слепой.
13
00:00:46,060 --> 00:00:47,939
Впрочем, я играю не для него.
14
00:00:48,220 --> 00:00:50,500
Я играю для человека
стоящего у меня за спиной.
[teatrix.ru].t14953.torrent 
Торрент: Зарегистрирован [ 2016-03-13 22:51 ] · C8E49CC37501C71DF227C5B8EB022FB76DC86048

Скачать .torrent

Скачать

16 KB

Статус: проверено
Скачан: 0 раз
Размер: 200 MB
terms.php



Быстрый ответ

Имя:

      
Для отправки сообщений необходимо включить JavaScript
Показать сообщения:    

Текущее время: 10-Дек 15:44

Часовой пояс: UTC + 3


Вы можете начинать темы
Вы можете отвечать на сообщения
Вы не можете редактировать свои сообщения
Вы не можете удалять свои сообщения
Вы не можете голосовать в опросах
Вы не можете прикреплять файлы к сообщениям
Вы можете скачивать файлы