Вечность мгновения / A Moment's Eternity (Тетсумаса Сайто / Tetsumasa Saito) [2011, Япония, коллажная анимация, короткий метр, DVDRip]


Статистика раздачи [Обновить пиров]
Размер:  70 MB   |    Зарегистрирован:  8 месяцев 28 дней   |    Скачан:  0 раз

Полного источника не было: Никогда

Личеров:  33  [  0 KB/s  ]   Подробная статистика пиров
 
   
 
 
 

[Цитировать]

Вечность мгновения
A Moment's Eternity- Страна: Япония
Жанр: коллажная анимация, короткий метр
Год выпуска: 2011
Продолжительность: 00:03:57
Перевод: Не требуется
Cубтитры: нет
Оригинальная аудиодорожка: музыкальное сопровождение
Режиссер: Тетсумаса Сайто / Tetsumasa Saito
В ролях: анимация
Описание: Молодой японский художник-аниматор Тетсумаса Сайто снял эту короткометражку в стиле ожившего фотоальбома, навечно запечатлевшего радостные мгновения прошлого.-Фильмы Тетсумаса Сайто-Сэмпл: http://multi-up.com/731050
Качество видео: DVDRip
Формат видео: AVI
Видео: XviD, 720x400 (1.80:1), 23.976 fps, ATI YVU12 4:2:0 Planar ~2258 kbps avg, 0.33 bit/pixel
Аудио: 48 kHz, MPEG Layer 3, 2 ch, ~192.00 kbps avg

MediaInfo

Полное имя                               : H:\My Torrents\[apreder]MINI_MOVIE_008\[apreder]MM_A_Moment's_Eternity(2011)DVDRip.avi
Формат : AVI
Формат/Информация : Audio Video Interleave
Размер файла : 69,8 Мбайт
Продолжительность : 3 м. 57 с.
Общий поток : 2460 Кбит/сек
Программа кодирования : VirtualDubMod 1.5.10.3 | www.virtualdub-fr.org || (build 2550/release)
Библиотека кодирования : VirtualDubMod build 2550/release
Видео
Идентификатор : 0
Формат : MPEG-4 Visual
Профиль формата : Advanced Simple@L5
Параметр BVOP формата : 2
Параметр QPel формата : Нет
Параметр GMC формата : Без точки перехода
Параметр матрицы формата : Default (H.263)
Режим смешивания : Сжатый битовый поток
Идентификатор кодека : XVID
Идентификатор кодека/Подсказка : XviD
Продолжительность : 3 м. 57 с.
Битрейт : 2258 Кбит/сек
Ширина : 720 пикселей
Высота : 400 пикселей
Соотношение сторон : 3:2
Соотношение сторон в оригинале : 16:9
Частота кадров : 23,976 кадра/сек
Цветовое пространство : YUV
Субдискретизация насыщенности : 4:2:0
Битовая глубина : 8 бит
Тип развёртки : Прогрессивная
Метод сжатия : С потерями
Бит/(Пиксели*Кадры) : 0.327
Размер потока : 64,1 Мбайт (92%)
Библиотека кодирования : XviD 64
Аудио
Идентификатор : 1
Формат : MPEG Audio
Версия формата : Version 1
Профиль формата : Layer 3
Режим : Joint stereo
Расширение режима : MS Stereo
Идентификатор кодека : 55
Идентификатор кодека/Подсказка : MP3
Продолжительность : 3 м. 57 с.
Вид битрейта : Постоянный
Битрейт : 192 Кбит/сек
Каналы : 2 канала
Частота : 48,0 КГц
Метод сжатия : С потерями
Размер потока : 5,45 Мбайт (8%)
Выравнивание : Разделение по промежуткам
Продолжительность промежутка : 42 мс. (1,00 видеокадр)
Время предзагрузки промежутка : 500 мс.
Библиотека кодирования : LAME3.98

Скриншот c названием фильма

Скриншоты

Скриншоты - резерв

-259/241√
[teatrix.ru].t14958.torrent 
Торрент: Зарегистрирован [ 2016-03-14 00:04 ] · 152FA90DD73545DD8359D2D65AC7DA94CD02EC7C

Скачать .torrent

Скачать

11 KB

Статус: проверено
Скачан: 0 раз
Размер: 70 MB
terms.php



Быстрый ответ

Имя:

      
Для отправки сообщений необходимо включить JavaScript
Показать сообщения:    

Текущее время: 11-Дек 01:26

Часовой пояс: UTC + 3


Вы можете начинать темы
Вы можете отвечать на сообщения
Вы не можете редактировать свои сообщения
Вы не можете удалять свои сообщения
Вы не можете голосовать в опросах
Вы не можете прикреплять файлы к сообщениям
Вы можете скачивать файлы