Водитель автопогрузчика Клаус - Первый день на работе / Staplerfahrer Klaus - Der erste Arbeitstag (Штефан Прен, Йорг Вагнер / Stefan Prehn, Jörg Wagner) [2000 г., короткометражный, учебный, треш, BDRip-AVC] VO + original + sub rus ger eng


Статистика раздачи [Обновить пиров]
Размер:  321 MB   |    Зарегистрирован:  8 месяцев 20 дней   |    Скачан:  0 раз

Полного источника не было: Никогда

Личеров:  36  [  0 KB/s  ]   Подробная статистика пиров
 
   
 
 
 

[Цитировать]

Водитель автопогрузчика Клаус - Первый день на работе / Staplerfahrer Klaus - Der erste Arbeitstag
Год выпуска: 2000
Страна: Германия
Жанр: Короткометражный учебный фильм (полутреш)
Продолжительность: 00:09:50
Оригинальный звук: есть (немецкий)
Перевод: Одноголосый закадровый (zaswer5)
Русские субтитры: есть (на основе ElHutto)
Режиссер: Штефан Прен (Stefan Pren) / Йорг Вагнер (Yorg Wagner)
В ролях: Константин Граудус (Клаус), Густав Адольф Арц (преподаватель), Юрген Кобель (Руди-с-Бензопилой), Тиль Хустер (Гюнтер-без-рук), Дитер Дост (пол-коллеги), Дуглас Вельбат (Пауль-в-наушниках). Рассказывает Эгон Хёген.
Описание: Короткометражный фильм, представляющий из себя руководство по технике безопасности управления вилочным автопогрузчиком.
Качество: BDRip-AVC (исходник: blu-ray диск)
Формат: MKV
Видео кодек: H.264
Аудио кодек: AC3
Видео: AVC, 960x536, 16:9, 3900kbps, 24fps
Аудио 1: AC3, 384kbps, 48kHz, 5.1 (немецкий original)
Аудио 2: AC3, 192kbps, 48kHz, 2.0 (русский VO)
Субтитры: русские, немецкие, английские

Скриншоты

Mediainfo

General
Complete name                            : StaplerfahrerKlaus.540p.mkv
Format                                   : Matroska
Format version                           : Version 2
File size                                : 321 MiB
Duration                                 : 9mn 50s
Overall bit rate mode                    : Variable
Overall bit rate                         : 4 564 Kbps
Writing application                      : mkvmerge v3.4.0 ('Rapunzel') built on May 15 2010 09:38:20
Writing library                          : libebml v0.8.0 + libmatroska v0.9.0
[br]
Video
ID                                       : 1
Format                                   : AVC
Format/Info                              : Advanced Video Codec
Format profile                           : High@L4.1
Format settings, CABAC                   : Yes
Format settings, ReFrames                : 4 frames
Codec ID                                 : V_MPEG4/ISO/AVC
Duration                                 : 9mn 50s
Bit rate mode                            : Variable
Bit rate                                 : 3 897 Kbps
Maximum bit rate                         : 40.0 Mbps
Width                                    : 960 pixels
Height                                   : 536 pixels
Display aspect ratio                     : 16:9
Frame rate                               : 24.000 fps
Color space                              : YUV
Chroma subsampling                       : 4:2:0
Bit depth                                : 8 bits
Scan type                                : Progressive
Bits/(Pixel*Frame)                       : 0.316
Stream size                              : 274 MiB (85%)
Writing library                          : x264 core 124 r2197 69a0443
Encoding settings                        : cabac=1 / ref=4 / deblock=1:-2:-1 / analyse=0x3:0x113 / me=umh / subme=10 / psy=1 / psy_rd=1.00:0.20 / mixed_ref=1 / me_range=24 / chroma_me=1 / trellis=2 / 8x8dct=1 / cqm=0 / deadzone=21,11 / fast_pskip=0 / chroma_qp_offset=-3 / threads=3 / sliced_threads=0 / nr=0 / decimate=1 / interlaced=0 / bluray_compat=0 / constrained_intra=0 / bframes=3 / b_pyramid=2 / b_adapt=2 / b_bias=0 / direct=3 / weightb=1 / open_gop=0 / weightp=2 / keyint=250 / keyint_min=23 / scenecut=40 / intra_refresh=0 / rc_lookahead=60 / rc=crf / mbtree=1 / crf=21.0 / qcomp=0.60 / qpmin=0 / qpmax=69 / qpstep=4 / vbv_maxrate=50000 / vbv_bufsize=50000 / crf_max=0.0 / nal_hrd=none / ip_ratio=1.40 / aq=1:1.0
Language                                 : German
Default                                  : Yes
Forced                                   : No
[br]
Audio #1
ID                                       : 2
Format                                   : AC-3
Format/Info                              : Audio Coding 3
Mode extension                           : CM (complete main)
Codec ID                                 : A_AC3
Duration                                 : 9mn 50s
Bit rate mode                            : Constant
Bit rate                                 : 384 Kbps
Channel(s)                               : 6 channels
Channel positions                        : Front: L C R, Side: L R, LFE
Sampling rate                            : 48.0 KHz
Bit depth                                : 16 bits
Compression mode                         : Lossy
Stream size                              : 27.0 MiB (8%)
Language                                 : German
Default                                  : Yes
Forced                                   : No
[br]
Audio #2
ID                                       : 3
Format                                   : AC-3
Format/Info                              : Audio Coding 3
Mode extension                           : CM (complete main)
Codec ID                                 : A_AC3
Duration                                 : 9mn 50s
Bit rate mode                            : Constant
Bit rate                                 : 192 Kbps
Channel(s)                               : 2 channels
Channel positions                        : Front: L R
Sampling rate                            : 44.1 KHz
Bit depth                                : 16 bits
Compression mode                         : Lossy
Stream size                              : 13.5 MiB (4%)
Language                                 : Russian
Default                                  : No
Forced                                   : No
[br]
Text #1
ID                                       : 4
Format                                   : UTF-8
Codec ID                                 : S_TEXT/UTF8
Codec ID/Info                            : UTF-8 Plain Text
Language                                 : Russian
Default                                  : Yes
Forced                                   : Yes
[br]
Text #2
ID                                       : 5
Format                                   : UTF-8
Codec ID                                 : S_TEXT/UTF8
Codec ID/Info                            : UTF-8 Plain Text
Language                                 : German
Default                                  : No
Forced                                   : No
[br]
Text #3
ID                                       : 6
Format                                   : UTF-8
Codec ID                                 : S_TEXT/UTF8
Codec ID/Info                            : UTF-8 Plain Text
Language                                 : English
Default                                  : No
Forced                                   : No
[br]
Menu
00:00:00.000                             : en:Chapter 00
00:01:03.041                             : en:Chapter 01
00:02:12.125                             : en:Chapter 02
00:03:17.250                             : en:Chapter 03
00:04:15.083                             : en:Chapter 04
00:05:32.125                             : en:Chapter 05
00:06:27.541                             : en:Chapter 06
00:07:13.458                             : en:Chapter 07
00:08:07.500                             : en:Chapter 08
00:09:01.375                             : en:Chapter 09

-
[teatrix.ru].t14963.torrent 
Торрент: Зарегистрирован [ 2016-03-14 00:26 ] · E3494FEA849312BDDF59991E22B317871B0B10B9

Скачать .torrent

Скачать

13 KB

Статус: проверено
Скачан: 0 раз
Размер: 321 MB
terms.php



Быстрый ответ

Имя:

      
Для отправки сообщений необходимо включить JavaScript
Показать сообщения:    

Текущее время: 03-Дек 09:42

Часовой пояс: UTC + 3


Вы можете начинать темы
Вы можете отвечать на сообщения
Вы не можете редактировать свои сообщения
Вы не можете удалять свои сообщения
Вы не можете голосовать в опросах
Вы не можете прикреплять файлы к сообщениям
Вы можете скачивать файлы