Гнилая романтика / Rotten Romance (Эрик Зийлстра / Erik Zijlstra) [2012, Нидерланды, арт-хаус, ужасы, трэш, эксплуатационный фильм, короткий метр, DVDRip] Original (Eng) + Sub (ru soft)


Статистика раздачи [Обновить пиров]
Размер:  335 MB   |    Зарегистрирован:  8 месяцев 25 дней   |    Скачан:  1 раз

Полного источника не было: 1 месяц 15 дней

Личеров:  37  [  0 KB/s  ]   Подробная статистика пиров
 
   
 
 
 

[Цитировать]

Гнилая романтика
Rotten Romance- Страна: Нидерланды
Жанр: арт-хаус, ужасы, трэш, эксплуатационный фильм, короткий метр
Год выпуска: 2012
Продолжительность: 00:19:43
Перевод: Субтитры (ralf124c41+)
Cубтитры: русские
Оригинальная аудиодорожка: английский
Режиссер: Эрик Зийлстра / Erik Zijlstra
В ролях: Эверт Мюйс / Evert Muis, Сандра де Цварт / Sandra de Zwart, Хенк Кок / Henk Kok, Фокси Энджел / Foxxy Angel
Описание: Эрик Зийлстра снял свой первый короткометражный низкобюджетный ужастик "Мечта посетителей / Droombezoeker" (2008) в возрасте 20 лет, еще обучаясь операторскому искусству. С тех пор он продолжает работать в эпатажном стиле, совмещающем в себе неоготику, трэш, ужасы и эротику, зачастую граничащую с порно. Его третий по счету экспериментальный порнофильм ужасов "Сделай так, чтобы Сатана кончил / Make Satan Cum" (2010) стал первым голландским фильмом для взрослых, выпущенным в анаглифе 3D.
Музыка: Кевина МакЛеода / Kevin McLeod, Эрика Зийлстра / Erik Zijlstra, Иогана Штрауса / Johann Strauss (вальс "Голубой Дунай"). За 25 лет творчества Кевин МакЛеод написал музыку к огромному количеству короткометражек, документальных и художественных фильмов и телесериалов – на imdb их количество зашкаливает за 800!
Фильм "Гнилая романтика" снят в популярном низкобюджетном стиле Gore, сочетающем в себе кровавые сцены и гипернатуралистичные эпизоды из жизни маньяков. Тем не менее, фильм обладает определенными визуальными изысками в виде интересной операторской работы и постановки света. Он состоит из трех новелл, показывающих довольно странную, но вполне возможную, и, как известно, существующую, любовь:
"Свидание вслепую / The Blind Date" - по форме и содержанию напоминает знаменитую сцену из фильма Питера Гринуэя "Повар, вор, его жена и ее любовник" - свидание вслепую заканчивается сценой каннибализма.
"День рождения папочки / Daddy's Birthday" - напомнит вам "Некромантика / Nekromantik" Йорга Буттгерайта – здесь подарок на день рождения связан с инцестом и некрофилией.
"Похороны пениса / The Funeral of a Penis" - отсылает нас к сцене из фильма Марко Феррери "Последняя женщина" - как и герой Депардье, уставший от вечной муки влечения к женщинам и невозможностью смириться с их похотливой сущностью, в этом фильме транссексуал решил наконец-то избавиться от того, что ему так мешало в этой жизни.
Доп. информация: DVD был выпущен ограниченным тиражом в 100 пронумерованных копий. В фильме нет диалогов, лишь надписи и одна фраза на английском в последней части фильма. На территории РФ возрастное ограничение 18+.
Номинация на лучшую короткометражку BUTFF - BUT Filmfestival - B-Movies, Undergroung & Trash Film Festival (Amsterdam) 2012.
Сэмпл: http://multi-up.com/757011

Субтитры

1
00:00:02,184 --> 00:00:06,908
Этот фильм не желателен для просмотра
лицами моложе 18 лет
2
00:00:08,632 --> 00:00:13,511
Фильм содержит эротические сцены,
сцены насилия и жестокости,
3
00:00:14,254 --> 00:00:17,552
а также сцены, которые некоторые
зрители могут счесть оскорбительными.
4
00:00:25,957 --> 00:00:31,406
ГНИЛАЯ РОМАНТИКА
5
00:00:32,769 --> 00:00:36,232
Автор сценария и режиссер
Эрик Зийлстра
6
00:00:37,719 --> 00:00:39,642
В ролях:
Эверт Мюйс
7
00:00:39,743 --> 00:00:42,922
Сандра де Цварт
8
00:00:43,006 --> 00:00:46,138
Хенк Кок
9
00:00:46,239 --> 00:00:49,653
Фокси Энджел
10
00:00:53,801 --> 00:00:57,102
Музыка Кевина МакЛеода
и Эрика Зийлстра
11
00:01:06,108 --> 00:01:09,734
ЧАСТЬ 1
Свидание вслепую
12
00:02:59,770 --> 00:03:02,699
НАДЕНЬ МЕНЯ
13
00:07:11,120 --> 00:07:15,717
ЧАСТЬ 2
День рождения папочки
14
00:13:47,975 --> 00:13:51,124
Татуировка на пальцах
"БОЛЬ"
15
00:13:56,684 --> 00:14:00,585
ЧАСТЬ 3
Похороны пениса
16
00:14:12,646 --> 00:14:14,439
Я родился не в том теле,
17
00:14:14,540 --> 00:14:16,811
но сегодня особый день.
18
00:14:21,024 --> 00:14:25,354
После него я стану на один шаг
ближе к своей цели,
19
00:14:25,455 --> 00:14:29,222
и певец Ринус
наконец-то полюбит меня.
20
00:18:14,306 --> 00:18:16,002
Прощай, мой старый друг!
Качество видео: DVDRip
Формат видео: AVI
Видео: XviD, 720x400 (1.80:1), 25 fps, ATI YVU12 4:2:0 Planar ~2234 kbps avg, 0.31 bit/pixel
Аудио: 44.100 kHz, MPEG Layer 3, 2 ch, ~128.00 kbps avg
Формат субтитров: softsub (SRT)

MediaInfo

Полное имя                               : H:\My Torrents\[apreder]Rotten_Romance(2012)DVDRip\[apreder]Rotten_Romance(2012)DVDRip.avi
Формат : AVI
Формат/Информация : Audio Video Interleave
Размер файла : 335 Мбайт
Продолжительность : 19 м.
Общий поток : 2372 Кбит/сек
Программа кодирования : VirtualDubMod 1.5.10.3 | www.virtualdub-fr.org || (build 2550/release)
Библиотека кодирования : VirtualDubMod build 2550/release
Видео
Идентификатор : 0
Формат : MPEG-4 Visual
Профиль формата : Advanced Simple@L5
Параметр BVOP формата : 2
Параметр QPel формата : Нет
Параметр GMC формата : Без точки перехода
Параметр матрицы формата : Default (H.263)
Режим смешивания : Сжатый битовый поток
Идентификатор кодека : XVID
Идентификатор кодека/Подсказка : XviD
Продолжительность : 19 м.
Битрейт : 2235 Кбит/сек
Ширина : 720 пикселей
Высота : 400 пикселей
Соотношение сторон в оригинале : 16:9
Частота кадров : 25,000 кадров/сек
Цветовое пространство : YUV
Субдискретизация насыщенности : 4:2:0
Битовая глубина : 8 бит
Тип развёртки : Прогрессивная
Метод сжатия : С потерями
Бит/(Пиксели*Кадры) : 0.310
Размер потока : 315 Мбайт (94%)
Библиотека кодирования : XviD 64
Аудио
Идентификатор : 1
Формат : MPEG Audio
Версия формата : Version 1
Профиль формата : Layer 3
Режим : Joint stereo
Расширение режима : MS Stereo
Идентификатор кодека : 55
Идентификатор кодека/Подсказка : MP3
Продолжительность : 19 м.
Вид битрейта : Постоянный
Битрейт : 128 Кбит/сек
Каналы : 2 канала
Частота : 44,1 КГц
Метод сжатия : С потерями
Размер потока : 18,1 Мбайт (5%)
Выравнивание : Разделение по промежуткам
Продолжительность промежутка : 40 мс. (1,00 видеокадр)
Время предзагрузки промежутка : 500 мс.
Библиотека кодирования : LAME3.98

Скриншот c названием фильма

Скриншоты - резерв


Обложки

-351/333√
[teatrix.ru].t14967.torrent 
Торрент: Зарегистрирован [ 2016-03-14 00:29 ] · 184C82CE7BC0375A34586359DA37470C1D7528F5

Скачать .torrent

Скачать

14 KB

Статус: проверено
Скачан: 1 раз
Размер: 335 MB
terms.php



Быстрый ответ

Имя:

      
Для отправки сообщений необходимо включить JavaScript
Показать сообщения:    

Текущее время: 08-Дек 14:59

Часовой пояс: UTC + 3


Вы можете начинать темы
Вы можете отвечать на сообщения
Вы не можете редактировать свои сообщения
Вы не можете удалять свои сообщения
Вы не можете голосовать в опросах
Вы не можете прикреплять файлы к сообщениям
Вы можете скачивать файлы