Держи вора! / Тит, или Сказ о большой ложке (Александр Медведкин, Николай Изволов) [1998, 2000, реконструкция несохранившихся фильмов, DVDRip]


Статистика раздачи [Обновить пиров]
Размер:  217 MB   |    Зарегистрирован:  8 месяцев 26 дней   |    Скачан:  0 раз

Полного источника не было: Никогда

Личеров:  36  [  0 KB/s  ]   Подробная статистика пиров
 
   
 
 
 

[Цитировать]

Держи вора! / Тит, или Сказ о большой ложке
Жанр: реконструкция несохранившихся фильмов
Режиссёр: Александр Медведкин, Николай Изволов
Описание: Реконструкция двух несохранившихся фильмов Александра Медведкина произведенная историком кино Николаем Изволовым (являющимся уникальным специалистом в этой области). Первый фильм высмеивает нерадивых колхозников, второй - о Тите, который хотел работать только своей ложкой.
подробнее о реконтрукции можно прочесть тут: http://otkakva.net/interview/izvolov/index.htm#_ftn2
Статью Изволова о Медведкине ("Киноведческие записки" N49 2000): http://www.kinozapiski.ru/ru/article/sendvalues/357/
Доп. информация: файлы были взяты с КГ, благодарность pa6sur
-
Держи вора!
Год выпуска: 1998
Продолжительность: 5:56
Качество видео: DVDRip
Формат видео: AVI
Видео : Xvid 576x416 29.97fps 1246kbps [Video 0],
Аудио : MPEG Audio Layer 3 48000Hz stereo 105kbps [Audio 1],

MediaInfo

для "Держи вора!":
General
Complete name : C:\Users\компьютер\Desktop\Le Bonheur\Nikolaï Izvolov - Medvedkine reconstitutions\L'histoire de Tite.avi
Format : AVI
Format/Info : Audio Video Interleave
File size : 159 MiB
Duration : 16mn 42s
Overall bit rate : 1 327 Kbps
Writing application : VirtualDubMod 1.5.10.2 (build 2540/release)
Writing library : VirtualDubMod build 2540/release
Video
ID : 0
Format : MPEG-4 Visual
Format profile : Advanced Simple@L5
Format settings, BVOP : Yes
Format settings, QPel : No
Format settings, GMC : No warppoints
Format settings, Matrix : Default (H.263)
Codec ID : XVID
Codec ID/Hint : XviD
Duration : 16mn 42s
Bit rate : 1 231 Kbps
Width : 576 pixels
Height : 432 pixels
Display aspect ratio : 4:3
Frame rate : 29.970 fps
Color space : YUV
Chroma subsampling : 4:2:0
Bit depth : 8 bits
Scan type : Progressive
Compression mode : Lossy
Bits/(Pixel*Frame) : 0.165
Stream size : 147 MiB (93%)
Writing library : XviD 1.1.0 (UTC 2005-11-22)
Audio
ID : 1
Format : MPEG Audio
Format version : Version 1
Format profile : Layer 3
Codec ID : 55
Codec ID/Hint : MP3
Duration : 16mn 42s
Bit rate mode : Variable
Bit rate : 81.8 Kbps
Minimum bit rate : 32.0 Kbps
Channel(s) : 1 channel
Sampling rate : 48.0 KHz
Compression mode : Lossy
Stream size : 9.79 MiB (6%)
Alignment : Aligned on interleaves
Interleave, duration : 24 ms (0.72 video frame)
Interleave, preload duration : 225 ms
Writing library : LAME3.97b
Encoding settings : -m m -V 4 -q 3 -lowpass 17.5 --vbr-new -b 32

Скриншоты


-
Тит, или Сказ о большой ложке

Год выпуска: 2000
Продолжительность: 16:42
Качество видео: DVDRip
Формат видео: AVI
Видео :Video: Xvid 576x432 29.97fps 1231kbps [Video 0]
Аудио :Audio: MPEG Audio Layer 3 48000Hz mono 81kbps [Audio 1]

MediaInfo

General
Complete name : C:\Users\компьютер\Desktop\Le Bonheur\Nikolaï Izvolov - Medvedkine reconstitutions\Au voleur.avi
Format : AVI
Format/Info : Audio Video Interleave
File size : 58.0 MiB
Duration : 5mn 56s
Overall bit rate : 1 366 Kbps
Writing application : VirtualDubMod 1.5.10.2 (build 2540/release)
Writing library : VirtualDubMod build 2540/release
Video
ID : 0
Format : MPEG-4 Visual
Format profile : Advanced Simple@L5
Format settings, BVOP : Yes
Format settings, QPel : No
Format settings, GMC : No warppoints
Format settings, Matrix : Default (H.263)
Codec ID : XVID
Codec ID/Hint : XviD
Duration : 5mn 56s
Bit rate : 1 247 Kbps
Width : 576 pixels
Height : 416 pixels
Display aspect ratio : 1.385
Frame rate : 29.970 fps
Color space : YUV
Chroma subsampling : 4:2:0
Bit depth : 8 bits
Scan type : Progressive
Compression mode : Lossy
Bits/(Pixel*Frame) : 0.174
Stream size : 52.9 MiB (91%)
Writing library : XviD 1.1.0 (UTC 2005-11-22)
Audio
ID : 1
Format : MPEG Audio
Format version : Version 1
Format profile : Layer 3
Mode : Joint stereo
Codec ID : 55
Codec ID/Hint : MP3
Duration : 5mn 56s
Bit rate mode : Variable
Bit rate : 105 Kbps
Minimum bit rate : 32.0 Kbps
Channel(s) : 2 channels
Sampling rate : 48.0 KHz
Compression mode : Lossy
Stream size : 4.48 MiB (8%)
Alignment : Aligned on interleaves
Interleave, duration : 24 ms (0.72 video frame)
Interleave, preload duration : 254 ms
Writing library : LAME3.97b
Encoding settings : -m j -V 4 -q 3 -lowpass 17.5 --vbr-new -b 32

Скриншоты

[teatrix.ru].t14968.torrent 
Торрент: Зарегистрирован [ 2016-03-14 00:29 ] · 1295C56C12DA05386466D2DCAD70DB8669D57FD4

Скачать .torrent

Скачать

18 KB

Статус: проверено
Скачан: 0 раз
Размер: 217 MB
terms.php



Быстрый ответ

Имя:

      
Для отправки сообщений необходимо включить JavaScript
Показать сообщения:    

Текущее время: 10-Дек 00:20

Часовой пояс: UTC + 3


Вы можете начинать темы
Вы можете отвечать на сообщения
Вы не можете редактировать свои сообщения
Вы не можете удалять свои сообщения
Вы не можете голосовать в опросах
Вы не можете прикреплять файлы к сообщениям
Вы можете скачивать файлы