Мирная жизнь / Big Society (Ник Скотт / Nick Scott) [2011, Великобритания, Драма, короткий метр, SATRip] VO


Статистика раздачи [Обновить пиров]
Размер:  90 MB   |    Зарегистрирован:  10 месяцев 10 дней   |    Скачан:  0 раз

Полного источника не было: Никогда

Личеров:  36  [  0 KB/s  ]   Подробная статистика пиров
 
   
 
 
 

[Цитировать]

Мирная жизнь / Big Society
Страна: Великобритания
Жанр: Драма, короткий метр
Год выпуска: 2011
Продолжительность: 00:06:03
Перевод: Студийный (одноголосый закадровый)
Cубтитры: нет
Режиссер: Ник Скотт / Nick Scott
В ролях: Джонатан Роудс, Йен Эплби, Ник Кроуфорд, Тэрек Джоунс, Гэррет Дэвид Миллэрик, Бен Тэуб, Том Райт
Описание: Британец, принимавший участие в военной операции в Афганистане, рассказывает о своём весьма спорном подходе к решению одной из социальных проблем.

Доп. информация: За предоставление фильма большое спасибо tengu
Качество видео: SATRip
Формат видео: AVI
Видео: 704x400 (1.76:1), 25 fps, XviD build 50 ~1941 kbps avg, 0.28 bit/pixe
Аудио: 48 kHz, MPEG Layer 3, 2 ch, ~128.00 kbps avg

MediaInfo

General
Complete name : D:\Public\Big Society.2011.SATRip.avi
Format : AVI
Format/Info : Audio Video Interleave
File size : 90.2 MiB
Duration : 6mn 3s
Overall bit rate : 2 080 Kbps
Writing application : VirtualDubMod 1.5.10.2 (build 2540/release)
Writing library : VirtualDubMod build 2540/release
Video
ID : 0
Format : MPEG-4 Visual
Format profile : Advanced Simple@L5
Format settings, BVOP : 1
Format settings, QPel : No
Format settings, GMC : No warppoints
Format settings, Matrix : Default (H.263)
Codec ID : XVID
Codec ID/Hint : XviD
Duration : 6mn 3s
Bit rate : 1 942 Kbps
Width : 704 pixels
Height : 400 pixels
Display aspect ratio : 16:9
Frame rate : 25.000 fps
Color space : YUV
Chroma subsampling : 4:2:0
Bit depth : 8 bits
Scan type : Progressive
Compression mode : Lossy
Bits/(Pixel*Frame) : 0.276
Stream size : 84.2 MiB (93%)
Writing library : XviD 1.2.1 (UTC 2008-12-04)
Audio
ID : 1
Format : MPEG Audio
Format version : Version 1
Format profile : Layer 3
Mode : Joint stereo
Mode extension : MS Stereo
Codec ID : 55
Codec ID/Hint : MP3
Duration : 6mn 3s
Bit rate mode : Constant
Bit rate : 128 Kbps
Channel(s) : 2 channels
Sampling rate : 48.0 KHz
Compression mode : Lossy
Delay relative to video : 21ms
Stream size : 5.55 MiB (6%)
Alignment : Split accross interleaves
Interleave, duration : 40 ms (1.00 video frame)
Interleave, preload duration : 500 ms

Скриншот c названием фильма

Скриншоты

[teatrix.ru].t14972.torrent 
Торрент: Зарегистрирован [ 2016-03-14 00:29 ] · B16211B41E4196DC142E25EBF90BBFC9ABE47CE9

Скачать .torrent

Скачать

15 KB

Статус: проверено
Скачан: 0 раз
Размер: 90 MB
terms.php



Быстрый ответ

Имя:

      
Для отправки сообщений необходимо включить JavaScript
Показать сообщения:    

Текущее время: 25-Янв 00:22

Часовой пояс: UTC + 3


Вы можете начинать темы
Вы можете отвечать на сообщения
Вы не можете редактировать свои сообщения
Вы не можете удалять свои сообщения
Вы не можете голосовать в опросах
Вы не можете прикреплять файлы к сообщениям
Вы можете скачивать файлы