Меня заводит ритм / Je sens le beat qui monte en moi / Beauty and the Beat (Ян Ле Келлек / Yann Le Quellec) [2012, Франция, Швейцария, Бельгия, лирическая комедия, сюрреализм, короткий метр, DVB] Original (Fre) + Sub (ru hard)


Статистика раздачи [Обновить пиров]
Размер:  640 MB   |    Зарегистрирован:  8 месяцев 22 дня   |    Скачан:  0 раз

Полного источника не было: Никогда

Личеров:  43  [  0 KB/s  ]   Подробная статистика пиров
 
   
 
 
 

[Цитировать]

Меня заводит ритм
Je sens le beat qui monte en moi / Beauty and the Beat- Страна: Франция, Швейцария, Бельгия
Жанр: лирическая комедия, сюрреализм, короткий метр
Год выпуска: 2012
Продолжительность: 00:30:53
Перевод: Субтитры (перевод О. Першиной, Éclair Group)
Cубтитры: русские
Оригинальная аудиодорожка: французский
Режиссер: Ян Ле Келлек / Yann Le Quellec
В ролях: Серж Бозон / Serge Bozon (Alain), Розальба Торрес Герерро / Rosalba Torres Guerrero (Rosalba), Вероник Эрвуэ / Véronique Hervouet (Marie), Жюльен Плайе / Julien Playe (Roch)
Описание: Этюд Шопена, песня с террасы кафе, щебет птиц и еще многие другие звуки превращают жизнь Розальбы в звуковой ад. Каждый раз, когда возникает мелодия, ее тело начинает жить собственной жизнью, отдаваясь ритму: руки начинают жестикулировать, ноги исполняют всевозможные па, - все ее существо вибрирует от неконтролируемых импульсов. Розальба придумывает тысячи уловок, чтобы скрыть свою эксцентричность. Но, кто бы мог подумать, что именно это странное свойство ее натуры соблазнит ее коллегу Алена.
Доп. информация: Собственная запись со спутника (канал TV5MONDE, пакет НТВ+).
Номинация на приз "Золотой леопард" в разделе "Леопард будущего" Locarno International Film Festival 2012 за лучший иностранный фильм.
Информация: http://www.imdb.com/title/tt2204362/
Сэмпл: http://multi-up.com/777048
Качество видео: DVB
Формат видео: MPG
Видео: MPEG Video 2, 720x576@1024x576 (16:9), 25 fps, ~2648 kbps avg
Аудио: Французский (48 kHz, MPEG Audio 2, 2 ch, ~192.00 kbps avg)
Формат субтитров: hardsub (неотключаемые)

MediaInfo

Полное имя                               : H:\My Torrents\[apreder]MINI_MOVIE_008\[apreder]MM_Je_sens_le_beat_qui_monte_en_moi(2012)DVB.mpg
Формат : MPEG-PS
Размер файла : 640 Мбайт
Продолжительность : 30 м.
Режим общего битрейта : Переменный
Общий поток : 2898 Кбит/сек
Видео
Идентификатор : 224 (0xE0)
Формат : MPEG Video
Версия формата : Version 2
Профиль формата : Main@Main
Параметр BVOP формата : Да
Параметр матрицы формата : Выборочная
Параметр GOP формата : M=3, N=24
Продолжительность : 30 м.
Вид битрейта : Переменный
Битрейт : 2648 Кбит/сек
Ширина : 720 пикселей
Высота : 576 пикселей
Соотношение сторон : 16:9
Частота кадров : 25,000 кадров/сек
Стандарт вещания : PAL
Цветовое пространство : YUV
Субдискретизация насыщенности : 4:2:0
Битовая глубина : 8 бит
Тип развёртки : Прогрессивная
Порядок развёртки : Верхнее поле первое
Метод сжатия : С потерями
Бит/(Пиксели*Кадры) : 0.255
Размер потока : 585 Мбайт (91%)
Аудио
Идентификатор : 192 (0xC0)
Формат : MPEG Audio
Версия формата : Version 1
Профиль формата : Layer 2
Продолжительность : 30 м.
Вид битрейта : Постоянный
Битрейт : 192 Кбит/сек
Каналы : 2 канала
Частота : 48,0 КГц
Метод сжатия : С потерями
Размер потока : 42,4 Мбайт (7%)

Скриншот c названием фильма

Скриншоты анаморфированные



-419/401√
[teatrix.ru].t14988.torrent 
Торрент: Зарегистрирован [ 2016-03-14 00:36 ] · BBB8EF4D5CA1CEC2F58DC5F383A6298BE171C38B

Скачать .torrent

Скачать

13 KB

Статус: проверено
Скачан: 0 раз
Размер: 640 MB
terms.php



Быстрый ответ

Имя:

      
Для отправки сообщений необходимо включить JavaScript
Показать сообщения:    

Текущее время: 05-Дек 23:35

Часовой пояс: UTC + 3


Вы можете начинать темы
Вы можете отвечать на сообщения
Вы не можете редактировать свои сообщения
Вы не можете удалять свои сообщения
Вы не можете голосовать в опросах
Вы не можете прикреплять файлы к сообщениям
Вы можете скачивать файлы