Подожду следующего... / I'll Wait for the Next One... / J'attendrai le suivant... (Филипп Орренди / Philippe Orreindy) [2002, Франция, Драма, короткий метр, DVDRip] VO + Sub Eng + Original Fre


Статистика раздачи [Обновить пиров]
Размер:  71 MB   |    Зарегистрирован:  8 месяцев 23 дня   |    Скачан:  0 раз

Полного источника не было: Никогда

Личеров:  43  [  0 KB/s  ]   Подробная статистика пиров
 
   
 
 
 

[Цитировать]

Подожду следующего... / I'll Wait for the Next One... / J'attendrai le suivant...
Страна: Франция
Жанр: Драма, короткий метр
Год выпуска: 2002
Продолжительность: 00:04:38
Перевод: Студийный (одноголосый закадровый)
Оригинальная аудиодорожка: французская
Cубтитры: английские hardsub (неотключаемые)
Режиссер: Филипп Орренди / Philippe Orreindy
В ролях: Софи Форте, Томас Гудин, Паскаль Касанова.
Описание: В поезд метро заходит человек и обращается к находящимся там женщинам с предложением познакомиться с ним. Он объясняет, что уже несколько лет не может найти себе подругу, что обычные способы знакомства не приносят успеха, хотя он вполне здоровый и обеспеченный человек. Он добавляет, что любая женщина, которую заинтересует его предложение, может просто сойти на следующей остановке. Похоже, ему удалось тронуть сердце одной из попутчиц...

Качество видео: DVDRip
Формат видео: AVI
Видео: 720x400 (1.80:1), 29.970 fps, XviD build 50 ~1735 kbps avg, 0.20 bit/pixel
Аудио 1: 48 kHz, AC3 Dolby Digital, 2/0 (L,R) ch, ~192 kbps - русский
Аудио 2: 48 kHz, AC3 Dolby Digital, 2/0 (L,R) ch, ~192 kbps - французский

MediaInfo

General
Complete name : D:\Public\I'll_wait_for_the_next_one_2002_Rus+Fr.avi
Format : AVI
Format/Info : Audio Video Interleave
File size : 70.9 MiB
Duration : 4mn 38s
Overall bit rate : 2 138 Kbps
Writing application : VirtualDubMod 1.5.10.2 (build 2542/release)
Writing library : VirtualDubMod build 2542/release
Video
ID : 0
Format : MPEG-4 Visual
Format profile : Advanced Simple@L5
Format settings, BVOP : 1
Format settings, QPel : No
Format settings, GMC : No warppoints
Format settings, Matrix : Default (H.263)
Codec ID : XVID
Codec ID/Hint : XviD
Duration : 4mn 38s
Bit rate : 1 736 Kbps
Width : 720 pixels
Height : 400 pixels
Display aspect ratio : 16:9
Frame rate : 29.970 fps
Color space : YUV
Chroma subsampling : 4:2:0
Bit depth : 8 bits
Scan type : Progressive
Compression mode : Lossy
Bits/(Pixel*Frame) : 0.201
Stream size : 57.5 MiB (81%)
Writing library : XviD 1.2.1 (UTC 2008-12-04)
Audio #1
ID : 1
Format : AC-3
Format/Info : Audio Coding 3
Mode extension : CM (complete main)
Codec ID : 2000
Duration : 4mn 38s
Bit rate mode : Constant
Bit rate : 192 Kbps
Channel(s) : 2 channels
Channel positions : Front: L R
Sampling rate : 48.0 KHz
Bit depth : 16 bits
Compression mode : Lossy
Stream size : 6.36 MiB (9%)
Alignment : Split accross interleaves
Interleave, duration : 33 ms (1.00 video frame)
Interleave, preload duration : 500 ms
Audio #2
ID : 2
Format : AC-3
Format/Info : Audio Coding 3
Mode extension : CM (complete main)
Codec ID : 2000
Duration : 4mn 38s
Bit rate mode : Constant
Bit rate : 192 Kbps
Channel(s) : 2 channels
Channel positions : Front: L R
Sampling rate : 48.0 KHz
Bit depth : 16 bits
Compression mode : Lossy
Stream size : 6.36 MiB (9%)
Alignment : Split accross interleaves
Interleave, duration : 33 ms (1.00 video frame)
Interleave, preload duration : 500 ms

Скриншот c названием фильма

Скриншоты

[teatrix.ru].t14991.torrent 
Торрент: Зарегистрирован [ 2016-03-14 00:35 ] · 7F2B54907EEA585818436B1965529E80F3A4B5F5

Скачать .torrent

Скачать

12 KB

Статус: проверено
Скачан: 0 раз
Размер: 71 MB
terms.php



Быстрый ответ

Имя:

      
Для отправки сообщений необходимо включить JavaScript
Показать сообщения:    

Текущее время: 06-Дек 17:09

Часовой пояс: UTC + 3


Вы можете начинать темы
Вы можете отвечать на сообщения
Вы не можете редактировать свои сообщения
Вы не можете удалять свои сообщения
Вы не можете голосовать в опросах
Вы не можете прикреплять файлы к сообщениям
Вы можете скачивать файлы