Иван Дыховичный. Жизнь на взлете [2012, Биографический фильм, TVRip]


Статистика раздачи [Обновить пиров]
Размер:  1.17 GB   |    Зарегистрирован:  8 месяцев 19 дней   |    Скачан:  0 раз

Полного источника не было: Никогда

Личеров:  45  [  0 KB/s  ]   Подробная статистика пиров
 
   
 
 
 

[Цитировать]

Иван Дыховичный. Жизнь на взлете
Жанр: Биографический фильм
Год выпуска: 2012
Продолжительность: 0:51:59
В фильме принимают участие:: Вениамин Смехов, Сергей Мазаев, Александр Митта, Ингеборга Дапкунайте, Владимир Качан, Вадим Юсов, Ольга Дыховичная (вдова И. Дыховичного), Владимир Дыховичный (сын).
Описание: Он работал до последнего дня, зная всю горькую правду о своей болезни, мечтал снять еще один фильм - о судьбе поэта Владимира Маяковского, но не успел. Он ушел рано, в расцвете творческих сил, но все его коллеги и друзья говорят о нем, как о человеке, одаренном талантами в самых разных областях. Иван Дыховичный был блистательным актером самого знаменитого и скандального театра Москвы – легендарной Таганки, режиссером, снявшим интересные и необычные картины. Еще один дар Ивана Дыховичного – его умение дружить. Он был близким и преданным другом Владимира Высоцкого.
В одном из последних интервью Первому каналу Иван Дыховичный сказал: "Я не думаю о том, что я умру. И не хочу об этом думать. Это случится, безусловно, со всеми нами это произойдет. Но я живу и хочу снять следующую картину. Может быть, мне не удастся, но я всё равно попытаюсь это сделать.
Я понял, что совершенно не боюсь смерти. Я был там три раза и оттуда возвращался. Это не страшно совершенно. Страшно - быть бесчестным человеком, страшно не иметь друзей, страшно быть одиноким в жизни. Моя жизнь - это мои друзья, моя семья и мои коллеги".
В документальном фильме памяти Ивана Дыховичного его коллеги, друзья и близкие вспомнят его именно таким: честным, принципиальным, талантливым.
Доп. информация: Эфир 1 канал 19 октября в 00:50
Качество видео: TVRip
Формат видео: AVI
Аудио кодек: MP3
Видео кодек: DivX
Видео: 720х576, 25,000 кадр/сек, 3 000 Кбит/сек, 0.289 Бит/Пиксели
Аудио: MPEG Audio, Version 1, Layer 3, 224 Кбит/сек, 48,0 КГц, 2 канала

MediaInfo

Format : DivX
Format/Info : Hack of AVI
File size : 1.17 GiB
Duration : 51mn 59s
Overall bit rate : 3 234 Kbps
Video
ID : 0
Format : MPEG-4 Visual
Format settings, BVOP : No
Format settings, QPel : No
Format settings, GMC : No warppoints
Format settings, Matrix : Default (H.263)
Codec ID : DX50
Codec ID/Hint : DivX 5
Duration : 51mn 59s
Bit rate : 3 000 Kbps
Width : 720 pixels
Height : 576 pixels
Display aspect ratio : 5:4
Frame rate : 25.000 fps
Standard : PAL
Resolution : 24 bits
Colorimetry : 4:2:0
Scan type : Progressive
Bits/(Pixel*Frame) : 0.289
Stream size : 1.09 GiB (93%)
Title : Video
Writing library : DivX 6.6.1.4
Audio
ID : 1
Format : MPEG Audio
Format version : Version 1
Format profile : Layer 3
Codec ID : 55
Codec ID/Hint : MP3
Duration : 51mn 59s
Bit rate mode : Constant
Bit rate : 224 Kbps
Channel(s) : 2 channels
Sampling rate : 48.0 KHz
Resolution : 16 bits
Stream size : 83.3 MiB (7%)
Alignment : Split accross interleaves
Interleave, duration : 40 ms (1.00 video frame)
Interleave, preload duration : 500 ms
Title : Audio
Writing library : LAME3.96

Скриншоты

[teatrix.ru].t14993.torrent 
Торрент: Зарегистрирован [ 2016-03-14 00:35 ] · 863CC2166D511C8D09A6A3F695B8159674F90B3E

Скачать .torrent

Скачать

12 KB

Статус: проверено
Скачан: 0 раз
Размер: 1.17 GB
terms.php



Быстрый ответ

Имя:

      
Для отправки сообщений необходимо включить JavaScript
Показать сообщения:    

Текущее время: 02-Дек 21:13

Часовой пояс: UTC + 3


Вы можете начинать темы
Вы можете отвечать на сообщения
Вы не можете редактировать свои сообщения
Вы не можете удалять свои сообщения
Вы не можете голосовать в опросах
Вы не можете прикреплять файлы к сообщениям
Вы можете скачивать файлы