Послушайте! Вечер Константина Райкина (Анастасия Синельникова) [2012, Концерт, поэзия, культура, искусство, театр, DVB]


Статистика раздачи [Обновить пиров]
Размер:  3.45 GB   |    Зарегистрирован:  8 месяцев 25 дней   |    Скачан:  0 раз

Полного источника не было: Никогда

Личеров:  44  [  0 KB/s  ]   Подробная статистика пиров
 
   
 
 
 

[Цитировать]

Послушайте! Вечер Константина Райкина
Жанр: Концерт, поэзия, культура, искусство, театр
Год выпуска: 2012
Продолжительность: 01:33:31
Режиссёр: Анастасия Синельникова
В ролях: Константин Райкин
Описание: Главная идея этого уникального проекта – Актёр и Поэтический текст в проявлении самых разнообразных связей: личных, творческих, биографических. Комментарий актёра не менее важен, чем непосредственное исполнение. Это, своего рода, – размышления вслух. В программе будут звучать поэтические произведения, которые живут во времени и вне времени, и независимо от того, какая эпоха на дворе, они всегда открываются по-новому. Телеверсия вечера в Московском Международном Доме Музыки.
В этом выпуске: Константин Райкин читает стихи Давида Самойлова, Николая Заболоцкого, Николая Рубцова, Осипа Мандельштама, Александра Пушкина, монолог Лауренсьо из пьесы Лопе де Веги «Дурочка».
Семпл: http://multi-up.com/785414
Доп. информация: Релиз -

Рип чистый. Без посторонних надписей. Выкладывается как есть.
Качество: DVB
Формат: MPG
Видео кодек: MPG2
Аудио кодек: MP2
Видео: 720x576 @ 768x576 (4:3) 25.00fps 5 017 Kbps, 0.484 bit/pixel
Аудио: MPEG Audio 48000Hz stereo 192 Кбит/сек

Скриншоты


MI

General
Complete name : J:\ВЫКЛАДКА\DVB\01 - ДОКУМЕНТАЛЬНОЕ\Послушайте. Константин Райкин (2012) (MYDIMKA).mpg
Format : MPEG-PS
File size : 3.45 GiB
Duration : 1h 33mn
Overall bit rate mode : Variable
Overall bit rate : 5 285 Kbps
Video
ID : 224 (0xE0)
Format : MPEG Video
Format version : Version 2
Format profile : Main@Main
Format settings, BVOP : Yes
Format settings, Matrix : Custom
Duration : 1h 33mn
Bit rate mode : Variable
Bit rate : 5 017 Kbps
Width : 720 pixels
Height : 576 pixels
Display aspect ratio : 4:3
Frame rate : 25.000 fps
Standard : PAL
Color space : YUV
Chroma subsampling : 4:2:0
Bit depth : 8 bits
Scan type : Interlaced
Scan order : Top Field First
Compression mode : Lossy
Bits/(Pixel*Frame) : 0.484
Stream size : 3.26 GiB (94%)
Audio
ID : 192 (0xC0)
Format : MPEG Audio
Format version : Version 1
Format profile : Layer 2
Duration : 1h 33mn
Bit rate mode : Constant
Bit rate : 192 Kbps
Channel(s) : 2 channels
Sampling rate : 48.0 KHz
Compression mode : Lossy
Delay relative to video : -16ms
Stream size : 128 MiB (4%)
[teatrix.ru].t15002.torrent 
Торрент: Зарегистрирован [ 2016-03-14 00:36 ] · A2707C8BB56461018328DE15D07A4A2E56257011

Скачать .torrent

Скачать

18 KB

Статус: проверено
Скачан: 0 раз
Размер: 3.45 GB
terms.php



Быстрый ответ

Имя:

      
Для отправки сообщений необходимо включить JavaScript
Показать сообщения:    

Текущее время: 08-Дек 19:06

Часовой пояс: UTC + 3


Вы можете начинать темы
Вы можете отвечать на сообщения
Вы не можете редактировать свои сообщения
Вы не можете удалять свои сообщения
Вы не можете голосовать в опросах
Вы не можете прикреплять файлы к сообщениям
Вы можете скачивать файлы