Портреты эпохи. Юрий Любимов. (Юрий Ардашев) [2012, документальный, TVRip]


Статистика раздачи [Обновить пиров]
Размер:  860 MB   |    Зарегистрирован:  8 месяцев 26 дней   |    Скачан:  0 раз

Полного источника не было: Никогда

Личеров:  44  [  0 KB/s  ]   Подробная статистика пиров
 
   
 
 
 

[Цитировать]

Портреты эпохи. Юрий Любимов.
Жанр: документальный
Год выпуска: 2012
Продолжительность: 0:43:58
Режиссёр: Юрий Ардашев
В ролях: Ю.Любимов, А.Солженицын
Описание: Документальная картина посвящена известному театральному режиссеру. Мастер рассказывает о некоторых событиях своей жизни и делится размышлениями о прошлом и настоящем.
Морозной зимой 1924 года умер Ленин, и семилетнего Юру Любимова повели на похороны. В тридцать пять лет Юрий Любимов стал свидетелем похорон Сталина, а в шестьдесят два года вместе со всей труппой своего Театра на Таганке и вместе со всей Москвой он провожал в последний путь Владимира Высоцкого.
Каждая из этих траурных церемоний как будто олицетворяла собой окончание какого-то этапа в жизни страны (романтический революционный коммунизм, годы "культа личности", брежневский "застой"), на который парадоксальным образом пришлись важные для Юрия Любимова годы: детство, молодость и апогей творческой карьеры.
Целый век прошел перед глазами великого российского театрального режиссера…
Доп. информация: Эфир. ТК Россия1 01.10.2012 03:20
Качество видео: TVRip
Формат видео: AVI
Аудио кодек: MP3
Видео кодек: DivX
Видео: DivX 5, 720х540, 25,000 кадр/сек, 2 500 Кбит/сек, 0.257 Бит/Пиксел
Аудио: MPEG Audio, Version 1, Layer 3, 224 Кбит/сек, 48,0 КГц, 2 канала

MediaInfo

Format : DivX
Format/Info : Hack of AVI
File size : 860 MiB
Duration : 43mn 58s
Overall bit rate : 2 733 Kbps
Video
ID : 0
Format : MPEG-4 Visual
Format settings, BVOP : No
Format settings, QPel : No
Format settings, GMC : No warppoints
Format settings, Matrix : Default (H.263)
Codec ID : DX50
Codec ID/Hint : DivX 5
Duration : 43mn 58s
Bit rate : 2 500 Kbps
Width : 720 pixels
Height : 540 pixels
Display aspect ratio : 4:3
Frame rate : 25.000 fps
Resolution : 24 bits
Colorimetry : 4:2:0
Scan type : Progressive
Bits/(Pixel*Frame) : 0.257
Stream size : 786 MiB (91%)
Title : Video
Writing library : DivX 6.6.1.4
Audio
ID : 1
Format : MPEG Audio
Format version : Version 1
Format profile : Layer 3
Codec ID : 55
Codec ID/Hint : MP3
Duration : 43mn 58s
Bit rate mode : Constant
Bit rate : 224 Kbps
Channel(s) : 2 channels
Sampling rate : 48.0 KHz
Resolution : 16 bits
Stream size : 70.5 MiB (8%)
Alignment : Split accross interleaves
Interleave, duration : 40 ms (1.00 video frame)
Interleave, preload duration : 500 ms
Title : Audio
Writing library : LAME3.96

Скриншоты

[teatrix.ru].t15004.torrent 
Торрент: Зарегистрирован [ 2016-03-14 00:36 ] · E14864C8DE88D36EABA1396D19B0226389E43740

Скачать .torrent

Скачать

17 KB

Статус: проверено
Скачан: 0 раз
Размер: 860 MB
terms.php



Быстрый ответ

Имя:

      
Для отправки сообщений необходимо включить JavaScript
Показать сообщения:    

Текущее время: 09-Дек 14:39

Часовой пояс: UTC + 3


Вы можете начинать темы
Вы можете отвечать на сообщения
Вы не можете редактировать свои сообщения
Вы не можете удалять свои сообщения
Вы не можете голосовать в опросах
Вы не можете прикреплять файлы к сообщениям
Вы можете скачивать файлы