Владислав Виноградов. Своё, совсем особое кино (О.Высоцкая) [2008, Документальный, TVRip]


Статистика раздачи [Обновить пиров]
Размер:  806 MB   |    Зарегистрирован:  8 месяцев 23 дня   |    Скачан:  0 раз

Полного источника не было: Никогда

Личеров:  40  [  0 KB/s  ]   Подробная статистика пиров
 
   
 
 
 

[Цитировать]

Владислав Виноградов. Своё, совсем особое кино
Жанр: Документальный
Год выпуска: 2008
Продолжительность: 0:25:44
Режиссёр: О.Высоцкая
В ролях: Владислав Виноградов
Описание: Наверное, каждый, кто хоть раз смотрел фильм Владислава Виноградова, запомнил эти удивительные кадры, присущие только этому режиссеру: человек долго вглядывается в камеру, словно ищет по ту сторону объектива разгадку какой-то ему одному ведомой истории, а на самом деле просто всматривается в самого себя, в свою жизнь. Он удивительно может передавать аромат эпохи, почувствовать ее через судьбы самых неожиданных людей.
В передачу включены фрагменты из фильмов Владислава Виноградова, а сам мастер расскажет про своих героев, которые сформировали его, сделали таким, как он есть.
Качество видео: TVRip
Формат видео: DVD Video
Аудио кодек: AC3
Видео кодек: MPEG-2
Видео: MPEG Video, Version 2, 720х576, 25,000 кадр/сек, 3947 Кбит/сек, 0.381 Бит/Пиксели
Аудио: Audio Coding 3, 256 Кбит/сек, 48,0 КГц, 2 канала

MediaInfo

Format : MPEG-PS
File size : 806 MiB
Duration : 25mn 44s
Overall bit rate : 4 377 Kbps
Video
ID : 224 (0xE0)
Format : MPEG Video
Format version : Version 2
Format profile : Main@Main
Format settings, Matrix : Default
Duration : 25mn 44s
Bit rate mode : Variable
Bit rate : 3 947 Kbps
Nominal bit rate : 8 000 Kbps
Width : 720 pixels
Height : 576 pixels
Display aspect ratio : 4:3
Frame rate : 25.000 fps
Standard : PAL
Colorimetry : 4:2:0
Scan type : Interlaced
Scan order : Top Field First
Bits/(Pixel*Frame) : 0.381
Stream size : 727 MiB (90%)
Audio
ID : 128 (0x80)
Format : AC-3
Format/Info : Audio Coding 3
Duration : 25mn 44s
Bit rate mode : Constant
Bit rate : 256 Kbps
Channel(s) : 2 channels
Channel positions : L R
Sampling rate : 48.0 KHz
Video delay : -464ms
Stream size : 47.1 MiB (6%)

Скриншоты

[teatrix.ru].t15009.torrent 
Торрент: Зарегистрирован [ 2016-03-14 00:38 ] · A169909396841BC6F5E759305F79F87FCDAD1512

Скачать .torrent

Скачать

16 KB

Статус: проверено
Скачан: 0 раз
Размер: 806 MB
terms.php



Быстрый ответ

Имя:

      
Для отправки сообщений необходимо включить JavaScript
Показать сообщения:    

Текущее время: 06-Дек 20:58

Часовой пояс: UTC + 3


Вы можете начинать темы
Вы можете отвечать на сообщения
Вы не можете редактировать свои сообщения
Вы не можете удалять свои сообщения
Вы не можете голосовать в опросах
Вы не можете прикреплять файлы к сообщениям
Вы можете скачивать файлы