Четвёртое измерение / The Fourth Dimension (Алексей Федорченко, Хармони Корин / Harmony Korine, Жан Квечински / Jan Kwiecinski) [ 2012, Польша, США, Россия, драма, комедия, приключения, WEBRip] sub rus


Статистика раздачи [Обновить пиров]
Размер:  743 MB   |    Зарегистрирован:  8 месяцев 27 дней   |    Скачан:  0 раз

Полного источника не было: Никогда

Личеров:  39  [  0 KB/s  ]   Подробная статистика пиров
 
   
 
 
 

[Цитировать]

Четвёртое измерение / The Fourth DimensionГод выпуска: 2012
Страна: Польша, США, Россия
Жанр: драма, комедия, приключения
Продолжительность: 01:48:14
Перевод: Субтитры
Cубтитры: русские (VICE Films / Grolsch Film Works)
Оригинальная аудиодорожка: мультиязычная
Режиссер: Алексей Федорченко, Хармони Корин / Harmony Korine, Жан Квечински / Jan Kwiecinski
Сценарий: Алексей Федорченко, Жан Квечински, Oleg Loevsky
Продюсер: Чарльз Антониоз, Прия Сваминатан, Дмитрий Воробьев
Оператор: Шандор Беркеши, Крис Бловелт, Kamil Plocki
Композитор: Вэл Килмер, Ник Зиннер
В ролях:
Вэл Килмер (Hector), Рэйчел Корин (Rach), Josh Belcher (Dancing Nacho Guy), Craig Taylor Brown (Seminar Attendee), Rodney Burlin (Concessions Clerk), Jason Bynum (Seminar Attendee), Harry P. Castros (Seminar Questioner), Гари Дуглас (Onlooker That Val Picks Out - with Blind Guy), Трой Дафф (Reverend Mickey House), Дарья Екамасова (Valya), Sami el Amri (Video Store Clerk), Варвара Федорченко (Girl with a Ladybird)-Описание: Три новеллы от трех режиссеров — Алексея Федорченко, Хармони Корина и Яна Квесински, снимавших в России, Америке и Польше соответственно. «Хроноглаз» Алексея Федорченко — фантастическая история про ученого Григория, который построил машину времени, на которой он мечтает умчаться в свои счастливые дни из прошлого. В центре событий, разворачивающихся в новелле Хармони Корина «Мастерская общества »Лотос«», — актер и композитор Вэл Килмер, который играет активиста Вэла Килмера, проповедующего на катке для роликового катания от имени вымышленного общества «Лотос» из Нэшвилла (родного города режиссера). «Оленята» Яна Квесиньски — история о четырех друзьях, натыкающихся на заброшенную деревню и, как если бы не замечая надвигающегося на них смертоносного потопа, рвущихся вперед. Куда?-Рейтинг:
Кинопоиск
IMDB-Качество: WEBRip
Формат: AVI
Видео: XviD, 656x368 (16:9), 822 kbps, 23,976 fps, 0,142 bpp
Аудио: MPEG Audio at 128 Кбит/сек; 2 канала, 44,1 КГц-

MI

Format : AVI
Format/Info : Audio Video Interleave
File size : 743 MiB
Duration : 1h 48mn
Overall bit rate : 960 Kbps
Writing application : VirtualDubMod 1.5.10.3 | www.virtualdub-fr.org || (build 2550/release)
Writing library : VirtualDubMod build 2550/release
Video
ID : 0
Format : MPEG-4 Visual
Format profile : Advanced Simple@L5
Format settings, BVOP : 2
Format settings, QPel : No
Format settings, GMC : No warppoints
Format settings, Matrix : Default (MPEG)
Codec ID : XVID
Codec ID/Hint : XviD
Duration : 1h 48mn
Bit rate : 823 Kbps
Width : 656 pixels
Height : 368 pixels
Display aspect ratio : 16:9
Frame rate : 23.976 fps
Color space : YUV
Chroma subsampling : 4:2:0
Bit depth : 8 bits
Scan type : Progressive
Compression mode : Lossy
Bits/(Pixel*Frame) : 0.142
Stream size : 637 MiB (86%)
Writing library : XviD 1.2.1 (UTC 2008-12-04)
Audio
ID : 1
Format : MPEG Audio
Format version : Version 1
Format profile : Layer 3
Codec ID : 55
Codec ID/Hint : MP3
Duration : 1h 48mn
Bit rate mode : Constant
Bit rate : 128 Kbps
Channel(s) : 2 channels
Sampling rate : 44.1 KHz
Compression mode : Lossy
Stream size : 99.1 MiB (13%)
Alignment : Split accross interleaves
Interleave, duration : 42 ms (1.00 video frame)
Interleave, preload duration : 500 ms
Writing library : LAME3.99r
Encoding settings : -m s -V 4 -q 2 -lowpass 17 -b 128

Пример субтитров

40
00:03:30,253 --> 00:03:31,751
Вэл Килмер!
41
00:03:31,921 --> 00:03:33,796
Похлопаем Вэлу Килмеру!
42
00:03:34,381 --> 00:03:35,548
Да!
43
00:03:36,466 --> 00:03:38,383
Это мой Вэл!
44
00:03:39,720 --> 00:03:40,761
Да!
45
00:04:10,876 --> 00:04:12,210
Кто-то из вас меня узнает.
46
00:04:12,420 --> 00:04:13,418
Знакомое лицо.
47
00:04:14,296 --> 00:04:15,796
Кабельное телевидение.
48
00:04:16,465 --> 00:04:17,465
- Да!
49
00:04:18,050 --> 00:04:19,216
У меня много наград.
50
00:04:19,426 --> 00:04:21,301
Меня этими наградами заваливают.
51
00:04:21,761 --> 00:04:23,178
Я очень известный.
52
00:04:24,306 --> 00:04:27,183
И большинство людей считают меня...
53
00:04:28,978 --> 00:04:30,728
...большим человеком.
54
00:04:31,688 --> 00:04:32,813
- Да!
55
00:04:33,775 --> 00:04:37,110
Чего не скажешь про вас.
56
00:04:37,653 --> 00:04:38,820
Вам нужна моя помощь.
57
00:04:38,988 --> 00:04:39,778
Тебе, тебе, и тебе.
58
00:04:39,988 --> 00:04:42,240
Вы тонете в нищете и безработице.
59
00:04:42,450 --> 00:04:46,451
Я так вам нужен,
вам так плохо без меня,
60
00:04:46,703 --> 00:04:48,536
что мне самому от этого плохо.
[teatrix.ru].t15010.torrent 
Торрент: Зарегистрирован [ 2016-03-14 00:38 ] · 9BE92F2F26D3F5D85406601F3D383041F05703CA

Скачать .torrent

Скачать

15 KB

Статус: проверено
Скачан: 0 раз
Размер: 743 MB
terms.php



Быстрый ответ

Имя:

      
Для отправки сообщений необходимо включить JavaScript
Показать сообщения:    

Текущее время: 10-Дек 10:01

Часовой пояс: UTC + 3


Вы можете начинать темы
Вы можете отвечать на сообщения
Вы не можете редактировать свои сообщения
Вы не можете удалять свои сообщения
Вы не можете голосовать в опросах
Вы не можете прикреплять файлы к сообщениям
Вы можете скачивать файлы