Ячейка / En boite / En boîte / Boxed (Матье Паке / Mathieu Paquier) [2010, Франция, абсурдизм, постмодернизм, короткий метр, DVB] Original (Fre) + Sub (ru hard, Рыбкина, Eclair Group)


Статистика раздачи [Обновить пиров]
Размер:  219 MB   |    Зарегистрирован:  8 месяцев 25 дней   |    Скачан:  0 раз

Полного источника не было: Никогда

Личеров:  44  [  0 KB/s  ]   Подробная статистика пиров
 
   
 
 
 

[Цитировать]

Ячейка
En boîte / Boxed- Страна: Франция
Жанр: абсурдизм, постмодернизм, короткий метр
Год выпуска: 2010
Продолжительность: 00:12:14
Перевод: Субтитры (перевод И. Рыбкиной, Éclair Group)
Cубтитры: русские
Оригинальная аудиодорожка: французский
Режиссер: Матье Паке / Mathieu Paquier
В ролях: Тьерри Машар / Thierry Machard (Le Cafetier), Гюрван ле Беерек / Gurvan le Beherec (Le Photographe), Марк Фор / Marc Faure (Le Chauffeur), Кристиан ле Бар / Christian Le Bars (Le Guichetier)
Описание: Сидя в темноте небритый и обросший человек режет помидоры для супа. Перед ним стоят банки, пакетики, керогаз. Скоро этому человеку предстоит странная работа. Ему пришло письмо из Министерства связи: он будет говорить с людьми…
Доп. информация: Собственная запись со спутника (канал TV5MONDE, пакет НТВ+).
Награды: приз "Серебряный медведь" Festival of Nations d’Ebensee 2011; приз жюри Festival International Séquence court-métrage de Toulouse 2011; 2 награды Festival du premier court métrage de Pontault-Combault 2011 (приз прессы; лучший актер - Thierry Machard); приз Зрительских симпатий Festival du film court de Voiron 2011. Участник более 30 МКФ.
Информация: http://www.imdb.com/title/tt2061670/
Сэмпл: http://multi-up.com/793484
Качество видео: DVB
Формат видео: MPG
Видео: MPEG Video 2, 720x576@1024x576 (16:9), 25 fps, ~2258 kbps avg
Аудио: Французский (48 kHz, MPEG Audio 2, 2 ch, ~192.00 kbps avg)
Формат субтитров: hardsub (неотключаемые)

MediaInfo

Полное имя                               : H:\My Torrents\[apreder]MINI_MOVIE_008\[apreder]MM_En_boite(2010)DVB.mpg
Формат : MPEG-PS
Размер файла : 219 Мбайт
Продолжительность : 12 м.
Режим общего битрейта : Переменный
Общий поток : 2500 Кбит/сек
Видео
Идентификатор : 224 (0xE0)
Формат : MPEG Video
Версия формата : Version 2
Профиль формата : Main@Main
Параметр BVOP формата : Да
Параметр матрицы формата : Выборочная
Параметр GOP формата : M=3, N=24
Продолжительность : 12 м.
Вид битрейта : Переменный
Битрейт : 2258 Кбит/сек
Ширина : 720 пикселей
Высота : 576 пикселей
Соотношение сторон : 16:9
Частота кадров : 25,000 кадров/сек
Стандарт вещания : PAL
Цветовое пространство : YUV
Субдискретизация насыщенности : 4:2:0
Битовая глубина : 8 бит
Тип развёртки : Прогрессивная
Порядок развёртки : Верхнее поле первое
Метод сжатия : С потерями
Бит/(Пиксели*Кадры) : 0.218
Размер потока : 198 Мбайт (90%)
Аудио
Идентификатор : 192 (0xC0)
Формат : MPEG Audio
Версия формата : Version 1
Профиль формата : Layer 2
Продолжительность : 12 м.
Вид битрейта : Постоянный
Битрейт : 192 Кбит/сек
Каналы : 2 канала
Частота : 48,0 КГц
Метод сжатия : С потерями
Размер потока : 16,8 Мбайт (8%)

Скриншот c названием фильма

Скриншоты

Скриншоты анаморфированные

-475/457√
[teatrix.ru].t15017.torrent 
Торрент: Зарегистрирован [ 2016-03-14 00:36 ] · 17042BFB70771D0827F4A88EF6A7B6E821F077BF

Скачать .torrent

Скачать

18 KB

Статус: проверено
Скачан: 0 раз
Размер: 219 MB
terms.php



Быстрый ответ

Имя:

      
Для отправки сообщений необходимо включить JavaScript
Показать сообщения:    

Текущее время: 08-Дек 01:21

Часовой пояс: UTC + 3


Вы можете начинать темы
Вы можете отвечать на сообщения
Вы не можете редактировать свои сообщения
Вы не можете удалять свои сообщения
Вы не можете голосовать в опросах
Вы не можете прикреплять файлы к сообщениям
Вы можете скачивать файлы