Наслаждайся жизнью! / Groove Your Life! (Венсан Буржевен / Vincent Burgevin, Франк Лебон / Franck Lebon) [2011, Франция, музыкальная лирическая комедия абсурда, короткий метр, DVB] Original (Fre) + Sub (ru hard, Кузина, Eclair Group)


Статистика раздачи [Обновить пиров]
Размер:  166 MB   |    Зарегистрирован:  8 месяцев 25 дней   |    Скачан:  0 раз

Полного источника не было: Никогда

Личеров:  39  [  0 KB/s  ]   Подробная статистика пиров
 
   
 
 
 

[Цитировать]

Наслаждайся жизнью!
Groove Your Life!- Страна: Франция
Жанр: музыкальная лирическая комедия абсурда, короткий метр
Год выпуска: 2011
Продолжительность: 00:07:04
Перевод: Субтитры (перевод М. Кузиной, Éclair Group)
Cубтитры: русские
Оригинальная аудиодорожка: французский
Режиссер: Венсан Буржевен / Vincent Burgevin, Франк Лебон / Franck Lebon
В ролях: Жан-Мишель Гратекап / Jean-Michel Gratecap (Patrice), Жюли Феррье / Julie Ferrier (Martine), Анн-Софи Жермана / Anne-Sophie Germanaz (Manon)
Описание: Жизнерадостная музыкальная короткометражка практически без слов рассказывает об отчаявшемся мужчине, которому будто сама судьба подбросила флаер с телефоном службы "Наслаждайся жизнью!", специализирующейся на счастье в доме и за символическую плату помогающей избавиться от неврозов.
Доп. информация: Собственная запись со спутника (канал TV5MONDE, пакет НТВ+).
Награды: приз "Серебряный медведь" FIFA Festival International du Film d'Aubagne (France) 2012; приз за лучшую музыку Festival d'Avignon (France) 2012; Специальный почетный приз жюри Feature film and short film festival City of Lights, City of Angels (Col-Coa) - Los Angeles 2012; приз Зрительских симпатий Festival de Reggio (Italie) 2012.
Информация: http://www.imdb.com/title/tt2371668
Сэмпл: http://multi-up.com/798454
Качество видео: DVB
Формат видео: MPG
Видео: MPEG Video 2, 720x576@1024x576 (16:9), 25 fps, ~3029 kbps avg
Аудио: Французский (48 kHz, MPEG Audio 2, 2 ch, ~192.00 kbps avg)
Формат субтитров: hardsub (неотключаемые)

MediaInfo

Полное имя                               : H:\My Torrents\[apreder]MINI_MOVIE_008\[apreder]MM_Groove_Your_Life(2011)DVB.mpg
Формат : MPEG-PS
Размер файла : 166 Мбайт
Продолжительность : 7 м. 4 с.
Режим общего битрейта : Переменный
Общий поток : 3286 Кбит/сек
Видео
Идентификатор : 224 (0xE0)
Формат : MPEG Video
Версия формата : Version 2
Профиль формата : Main@Main
Параметр BVOP формата : Да
Параметр матрицы формата : Выборочная
Параметр GOP формата : M=3, N=24
Продолжительность : 7 м. 4 с.
Вид битрейта : Переменный
Битрейт : 3029 Кбит/сек
Ширина : 720 пикселей
Высота : 576 пикселей
Соотношение сторон : 16:9
Частота кадров : 25,000 кадров/сек
Стандарт вещания : PAL
Цветовое пространство : YUV
Субдискретизация насыщенности : 4:2:0
Битовая глубина : 8 бит
Тип развёртки : Прогрессивная
Порядок развёртки : Верхнее поле первое
Метод сжатия : С потерями
Бит/(Пиксели*Кадры) : 0.292
Размер потока : 153 Мбайт (92%)
Аудио
Идентификатор : 192 (0xC0)
Формат : MPEG Audio
Версия формата : Version 1
Профиль формата : Layer 2
Продолжительность : 7 м. 4 с.
Вид битрейта : Постоянный
Битрейт : 192 Кбит/сек
Каналы : 2 канала
Частота : 48,0 КГц
Метод сжатия : С потерями
Размер потока : 9,71 Мбайт (6%)

Скриншот c названием фильма

Скриншоты

Скриншоты анаморфированные

-489/471√
[teatrix.ru].t15030.torrent 
Торрент: Зарегистрирован [ 2016-03-14 00:44 ] · 5C934C82BE69FCDD11715ADE5B8308722FCDB11F

Скачать .torrent

Скачать

13 KB

Статус: проверено
Скачан: 0 раз
Размер: 166 MB
terms.php



Быстрый ответ

Имя:

      
Для отправки сообщений необходимо включить JavaScript
Показать сообщения:    

Текущее время: 08-Дек 23:13

Часовой пояс: UTC + 3


Вы можете начинать темы
Вы можете отвечать на сообщения
Вы не можете редактировать свои сообщения
Вы не можете удалять свои сообщения
Вы не можете голосовать в опросах
Вы не можете прикреплять файлы к сообщениям
Вы можете скачивать файлы