Хулиган с душой поэта. Леонид Марков [2002, Документальный, DVB]


Статистика раздачи [Обновить пиров]
Размер:  594 MB   |    Зарегистрирован:  8 месяцев 25 дней   |    Скачан:  0 раз

Полного источника не было: Никогда

Личеров:  3  [  0 KB/s  ]   Подробная статистика пиров
 
   
 
 
 

[Цитировать]

Хулиган с душой поэта. Леонид Марков
Год выпуска: 2002
Страна: Россия, ТК "Культура"
Жанр: Документальный
Продолжительность: 00:38:46
Перевод: Не требуется
Русские субтитры: нет
Описание: Он умел приковывать к себе внимание зрителей фактурой, голосом, темпераментом. Слава пришла к Леониду Маркову после исполнения роли следователя Порфирия Петровича в спектакле "Петербургские сновидения" в Государственном академическом театре им. Моссовета. И зрители стали ходить в театр "на Маркова". Повезло актеру, наконец, и в кино, где он играл людей сильных, нестандартных, со сложной судьбой.
О Леониде Маркове вспоминают: сестра - актриса Римма Маркова, режиссеры - Павел Хомский и Эмиль Лотяну, актеры - Ольга Остроумова, Геннадий Бортников, Георгий Тараторкин и Елена Маркова (вдова актера).
Доп. информация: Программу подготовили:
Марина Коростылева, Ольга Ларина, Илья Лайнер, Любовь Перова, Анатолий Авагин, Владимир Иванов, Александр Петровский, Владимир Кудрявцев, Юрий Исаков, Светлана Марченкова, Дмитрий Борзенко, Федор Алексеев, Эдуард Шваба.
Качество: DVB
Формат: TS
Видео кодек: H.264
Аудио кодек: MP2
Видео: AVC (H264) 720x576 25.00fps 1 907 Kbps
Аудио: MPEG Audio Layer 2 48000Hz stereo 128 Kbps

Скриншоты

MediaInfo

General
ID : 1 (0x1)
Complete name : G:\Торрент\Культура\Хулиган с душой поэта. Леонид Марков - 2002\Хулиган с душой поэта. Леонид Марков - 2002.ts
Format : MPEG-TS
File size : 594 MiB
Duration : 38mn 46s
Overall bit rate : 2 142 Kbps
Video
ID : 602 (0x25A)
Menu ID : 6 (0x6)
Format : AVC
Format/Info : Advanced Video Codec
Format version : Version 2
Format profile : Main@L3.0
Format settings, CABAC : Yes
Format settings, ReFrames : 4 frames
Codec ID : 27
Duration : 38mn 46s
Bit rate : 1 907 Kbps
Maximum bit rate : 2 169 Kbps
Width : 720 pixels
Height : 576 pixels
Display aspect ratio : 4:3
Frame rate : 25.000 fps
Standard : PAL
Color space : YUV
Chroma subsampling : 4:2:0
Bit depth : 8 bits
Scan type : Interlaced
Scan order : Top Field First
Bits/(Pixel*Frame) : 0.184
Stream size : 529 MiB (89%)
Color primaries : BT.470-6 System B, BT.470-6 System G, BT.601-6 625, BT.1358 625, BT.1700 625 PAL, BT.1700 625 SECAM
Transfer characteristics : BT.470-6 System B, BT.470-6 System G
Matrix coefficients : BT.470-6 System B, BT.470-6 System G, BT.601-6 625, BT.1358 625, BT.1700 625 PAL, BT.1700 625 SECAM, IEC 61966-2-4 601
Audio
ID : 603 (0x25B)
Menu ID : 6 (0x6)
Format : MPEG Audio
Format version : Version 1
Format profile : Layer 2
Codec ID : 4
Duration : 38mn 46s
Bit rate mode : Constant
Bit rate : 128 Kbps
Maximum bit rate : 144 Kbps
Channel(s) : 2 channels
Sampling rate : 48.0 KHz
Compression mode : Lossy
Delay relative to video : 75ms
Stream size : 35.5 MiB (6%)
Language : Russian
Menu
ID : 601 (0x259)
Menu ID : 6 (0x6)
Duration : 38mn 46s
List : 602 (0x25A) (AVC) / 603 (0x25B) (MPEG Audio, Russian)
Language : / Russian
Maximum bit rate : 2486000
[teatrix.ru].t15050.torrent 
Торрент: Зарегистрирован [ 2016-03-14 00:45 ] · B0009DBA568F01871A12B0B4BD1BC801A90F07A9

Скачать .torrent

Скачать

12 KB

Статус: проверено
Скачан: 0 раз
Размер: 594 MB
terms.php



Быстрый ответ

Имя:

      
Для отправки сообщений необходимо включить JavaScript
Показать сообщения:    

Текущее время: 08-Дек 14:51

Часовой пояс: UTC + 3


Вы можете начинать темы
Вы можете отвечать на сообщения
Вы не можете редактировать свои сообщения
Вы не можете удалять свои сообщения
Вы не можете голосовать в опросах
Вы не можете прикреплять файлы к сообщениям
Вы можете скачивать файлы