Муравьиный лев / Жук-скакун / Doodlebug (Кристофер Нолан / Christopher Nolan) [1997, Великобритания, короткометражка, фэнтези, BDRip]


Статистика раздачи [Обновить пиров]
Размер:  55 MB   |    Зарегистрирован:  8 месяцев 28 дней   |    Скачан:  0 раз

Полного источника не было: Никогда

Личеров:  39  [  0 KB/s  ]   Подробная статистика пиров
 
   
 
 
 

[Цитировать]

Муравьиный лев / Жук-скакун / Doodlebug
Страна: Великобритания
Жанр: короткометражка, фэнтези
Год выпуска: 1997
Продолжительность: 00:02:56
Перевод: Не требуется
Cубтитры: нет
Режиссер: Кристофер Нолан / Christopher Nolan
В ролях: Джереми Теобалд
Описание: Первый фильм Кристофера Нолана.
Казалось бы, что может быть необычного в том, что человек пытается убить муравья, но это только на первый взгляд…
Доп. информация:


Качество видео: BDRip
Формат видео: AVI
Видео: XviD, 720x544, 23.976fps, 2394kbps, 0.255bit/pixel
Аудио: AC3, 48000Hz, 2ch, 192kbps

MediaInfo

Общее
Полное имя : D:\vrem\Doodlebug.avi
Формат : AVI
Формат/Информация : Audio Video Interleave
Размер файла : 54,7 Мбайт
Продолжительность : 2 м. 56 с.
Общий поток : 2596 Кбит/сек
Программа кодирования : VirtualDubModRus 1.5.10.2 (build 2542/release)
Библиотека кодирования : VirtualDubMod build 2542/release
Видео
Идентификатор : 0
Формат : MPEG-4 Visual
Профиль формата : Advanced Simple@L5
Параметр BVOP формата : 2
Параметр QPel формата : Нет
Параметр GMC формата : Без точки перехода
Параметр матрицы формата : Выборочная
Идентификатор кодека : XVID
Идентификатор кодека/Подсказка : XviD
Продолжительность : 2 м. 56 с.
Битрейт : 2394 Кбит/сек
Ширина : 720 пикселей
Высота : 544 пикселя
Соотношение сторон : 4:3
Частота кадров : 23,976 кадра/сек
Цветовое пространство : YUV
Субдискретизация насыщенности : 4:2:0
Битовая глубина : 8 бит
Тип развёртки : Прогрессивная
Метод сжатия : С потерями
Бит/(Пиксели*Кадры) : 0.255
Размер потока : 50,4 Мбайт (92%)
Библиотека кодирования : XviD 64
Аудио
Идентификатор : 1
Формат : AC-3
Формат/Информация : Audio Coding 3
Расширение режима : CM (complete main)
Параметр Endianness формата : Big
Идентификатор кодека : 2000
Продолжительность : 2 м. 56 с.
Вид битрейта : Постоянный
Битрейт : 192 Кбит/сек
Каналы : 2 канала
Расположение каналов : Front: L R
Частота : 48,0 КГц
Битовая глубина : 16 бит
Метод сжатия : С потерями
Размер потока : 4,04 Мбайт (7%)
Выравнивание : Разделение по промежуткам
Продолжительность промежутка : 42 мс. (1,00 видеокадр)
Время предзагрузки промежутка : 500 мс.

Скриншоты

[teatrix.ru].t15057.torrent 
Торрент: Зарегистрирован [ 2016-03-14 00:45 ] · B03F5D6166F469C7AC66104BD0D47E69E6CD54C7

Скачать .torrent

Скачать

18 KB

Статус: проверено
Скачан: 0 раз
Размер: 55 MB
terms.php



Быстрый ответ

Имя:

      
Для отправки сообщений необходимо включить JavaScript
Показать сообщения:    

Текущее время: 11-Дек 05:23

Часовой пояс: UTC + 3


Вы можете начинать темы
Вы можете отвечать на сообщения
Вы не можете редактировать свои сообщения
Вы не можете удалять свои сообщения
Вы не можете голосовать в опросах
Вы не можете прикреплять файлы к сообщениям
Вы можете скачивать файлы