Зеркало / Le miroir (Антуан Тингели / Antoine Tinguely, Лоран Фушер / Laurent Fauchere) [2010, Швейцария, сюрреализм, символизм, драма, короткий метр, DVB] Original (Fre) + Sub (rus hard, Вижье, Eclair Group)


Статистика раздачи [Обновить пиров]
Размер:  112 MB   |    Зарегистрирован:  8 месяцев 27 дней   |    Скачан:  0 раз

Полного источника не было: Никогда

Личеров:  41  [  0 KB/s  ]   Подробная статистика пиров
 
   
 
 
 

[Цитировать]

Зеркало
Le miroir- Страна: Швейцария
Жанр: сюрреализм, символизм, драма, короткий метр
Год выпуска: 2010
Продолжительность: 00:06:04
Перевод: Субтитры (перевод А. Вижье, Éclair Group)
Cубтитры: русские
Оригинальная аудиодорожка: французский
Режиссер: Антуан Тингели / Antoine Tinguely, Лоран Фушер / Laurent Fauchère (творческий псевдоним Ramon & Pedro)
В ролях: Захари Дестра / Zacharie Destraz, Жюль Мартине / Jules Martinet, Пьеррик Дестра / Pierrick Destraz, Анри Дестра / Henri Destraz
Описание: По мотивам книги Дэвида Иглмана / David Eagleman "Итог: 40 историй, что остались от жизни / Sum: Forty Tales from the Afterlives" (2009).
При разработке сюжета режиссеры довольно часто используют прием создания эпических переживаний, основанных на фразах наподобие "лето, что изменило мою жизнь" или "после нашей встречи я знал, что ничто не сможет остаться как прежде". Тем не менее, на своем опыте мы прекрасно знаем, что жизнь стремится постоянно проскользнуть мимо, оставляя вместо благоухания цветов нашей мечты горький запах миндаля будничной реальности.
Использование старого доброго приема обмана с помощью камеры и отражений в зеркале ванной комнаты позволяет запечатлеть путь человека от рождения до времени прощания с бренным миром.
Доп. информация: Собственная запись со спутника (канал TV5MONDE).
Награды: награда Shanghai International Film Festival 2010 за самый креативный короткометражный фильм; приз Зрительских симпатий Manlleu Film Festival 2010. Номинация на PRIX DU CINEMA SUISSE 2011 за лучшую короткометражку.
Информация: http://www.imdb.com/title/tt1736020/
Сэмпл: http://multi-up.com/808103
Качество видео: DVB
Формат видео: MPEG-PS
Видео: MPEG Video 2, 720x576@1024x576 (16:9), 25 fps, ~2342 kbps avg, 0.226 bit/pixel
Аудио: Французский (48 kHz, MPEG Audio 2, 2 ch, ~192.00 kbps avg)
Формат субтитров: hardsub (неотключаемые)

MediaInfo

Полное имя                               : H:\My Torrents\[apreder]MINI_MOVIE_008\[apreder]MM_Le_miroir(2010)DVB.mpg
Формат : MPEG-PS
Размер файла : 112 Мбайт
Продолжительность : 6 м. 4 с.
Режим общего битрейта : Переменный
Общий поток : 2586 Кбит/сек
Видео
Идентификатор : 224 (0xE0)
Формат : MPEG Video
Версия формата : Version 2
Профиль формата : Main@Main
Параметр BVOP формата : Да
Параметр матрицы формата : Выборочная
Параметр GOP формата : M=3, N=24
Продолжительность : 6 м. 4 с.
Вид битрейта : Переменный
Битрейт : 2342 Кбит/сек
Ширина : 720 пикселей
Высота : 576 пикселей
Соотношение сторон : 16:9
Частота кадров : 25,000 кадров/сек
Стандарт вещания : PAL
Цветовое пространство : YUV
Субдискретизация насыщенности : 4:2:0
Битовая глубина : 8 бит
Тип развёртки : Прогрессивная
Порядок развёртки : Верхнее поле первое
Метод сжатия : С потерями
Бит/(Пиксели*Кадры) : 0.226
Размер потока : 102 Мбайт (91%)
Аудио
Идентификатор : 192 (0xC0)
Формат : MPEG Audio
Версия формата : Version 1
Профиль формата : Layer 2
Продолжительность : 6 м. 4 с.
Вид битрейта : Постоянный
Битрейт : 192 Кбит/сек
Каналы : 2 канала
Частота : 48,0 КГц
Метод сжатия : С потерями
Размер потока : 8,35 Мбайт (7%)

Скриншот c названием фильма

Скриншоты


Скриншоты анаморфированные


-524/506√
[teatrix.ru].t15058.torrent 
Торрент: Зарегистрирован [ 2016-03-14 00:45 ] · 98A75524F6F409D122E8D0027AF5A7DB9F67CBC9

Скачать .torrent

Скачать

18 KB

Статус: проверено
Скачан: 0 раз
Размер: 112 MB
terms.php



Быстрый ответ

Имя:

      
Для отправки сообщений необходимо включить JavaScript
Показать сообщения:    

Текущее время: 10-Дек 17:45

Часовой пояс: UTC + 3


Вы можете начинать темы
Вы можете отвечать на сообщения
Вы не можете редактировать свои сообщения
Вы не можете удалять свои сообщения
Вы не можете голосовать в опросах
Вы не можете прикреплять файлы к сообщениям
Вы можете скачивать файлы